<?xml version="1.0" standalone="no"?>
<!DOCTYPE svg PUBLIC "-//W3C//DTD SVG 1.1//EN" "http://www.w3.org/Graphics/SVG/1.1/DTD/svg11.dtd">
<svg xmlns="http://www.w3.org/2000/svg">
<defs >
<font id="Krub" horiz-adv-x="557" ><font-face
    font-family="Krub"
    units-per-em="1000"
    panose-1="0 0 5 0 0 0 0 0 0 0"
    ascent="1007"
    descent="-293"
    alphabetic="0" />
<glyph unicode=" " glyph-name="space" horiz-adv-x="258" />
<glyph unicode="!" glyph-name="exclam" horiz-adv-x="246" d="M121 700H207L123 206H67L121 700ZM22 0T22 35L23 45L24 54Q32 99 76 99H84Q123 99 123 66Q123 58 122 54L121 45Q115 0 70 0H62Q22 0 22 35Z" />
<glyph unicode="&quot;" glyph-name="quotedbl" horiz-adv-x="324" d="M108 737H179L137 505H86L108 737ZM237 737H308L266 505H215L237 737Z" />
<glyph unicode="#" glyph-name="numbersign" horiz-adv-x="540" d="M420 433L370 265H469L462 215H355L290 0H237L302 215H152L87 0H34L99 215H-2L5 265H114L164 433H55L62 483H179L244 700H297L232 483H382L447 700H500L435 483H526L519 433H420ZM367 433H217L167
265H317L367 433Z" />
<glyph unicode="$" glyph-name="dollar" horiz-adv-x="609" d="M411 371T451 347T510 293T528 219Q528 118 464 58T283 -9L267 -120H205L221 -9Q158 -6 108 14T30 66T2 138Q2 164 18 180T63 197Q69 131 111 94T229 53L270 345Q166 372 120 415T74 530Q74 583 105
624T191 687T319 710H321L335 809H397L382 705Q456 691 503 650T559 547Q551 540 539 536T515 532Q502 532 494 538T480 559Q451 626 374 644L339 394Q411 371 451 347ZM147 500T159 480T199 443T279 411L313 650Q237 650 192 618T147 532Q147 500 159 480ZM368
62T410 100T452 202Q452 251 426 279T330 328L291 54Q368 62 410 100Z" />
<glyph unicode="%" glyph-name="percent" horiz-adv-x="860" d="M643 710H705L200 -10H138L643 710ZM179 362T142 399T105 504Q105 591 150 645T274 700Q335 700 371 663T407 562Q407 475 365 419T238 362Q179 362 142 399ZM298 414T323 454T349 561Q349 604 331
626T270 648Q217 648 190 608T163 506Q163 463 184 439T244 414Q298 414 323 454ZM511 0T474 37T437 142Q437 229 482 283T606 338Q667 338 703 301T739 200Q739 113 697 57T570 0Q511 0 474 37ZM630 52T655 92T681 199Q681 242 663 264T602 286Q549 286 522 246T495
144Q495 101 516 77T576 52Q630 52 655 92Z" />
<glyph unicode="&amp;" glyph-name="ampersand" horiz-adv-x="687" d="M489 61T511 54T566 45L562 18Q558 -10 516 -10Q490 -10 465 3T412 47Q325 -10 213 -10Q117 -10 61 35T5 163Q5 218 26 257T86 325T187 388Q146 472 146 536Q146 588 169 627T232 688T323
710Q383 710 421 677T459 588Q459 521 410 473T268 373Q301 316 346 245T423 133Q461 175 485 230T515 348Q536 348 550 337T565 307Q565 255 538 195T462 87Q489 61 511 54ZM266 657T238 624T209 537Q209 488 244 418Q317 457 356 496T395 588Q395 619 375 638T317
657Q266 657 238 624ZM70 110T108 76T214 42Q306 42 376 92Q335 147 289 218T212 342Q160 313 132 293T87 243T70 170Q70 110 108 76Z" />
<glyph unicode="&apos;" glyph-name="quotesingle" horiz-adv-x="223" d="M122 737H193L151 505H100L122 737Z" />
<glyph unicode="(" glyph-name="parenleft" horiz-adv-x="390" d="M122 -13T96 78T69 280Q69 446 131 588T304 854H378Q264 731 202 582T140 283Q140 73 244 -96H170Q122 -13 96 78Z" />
<glyph unicode=")" glyph-name="parenright" horiz-adv-x="390" d="M268 771T294 680T321 478Q321 312 259 170T86 -96H12Q126 27 188 176T250 475Q250 685 146 854H220Q268 771 294 680Z" />
<glyph unicode="*" glyph-name="asterisk" horiz-adv-x="618" d="M186 563L325 701L148 739L180 805L339 740L347 920H416L377 740L554 805L568 739L379 701L480 563L417 526L350 683L239 526L186 563Z" />
<glyph unicode="+" glyph-name="plus" horiz-adv-x="600" d="M252 294H34L42 354H260L292 578H356L324 354H542L534 294H316L285 70H221L252 294Z" />
<glyph unicode="," glyph-name="comma" horiz-adv-x="308" d="M133 99T143 89T154 61Q154 46 151 29Q145 -6 130 -34T91 -93Q59 -133 41 -133Q26 -133 14 -121Q47 -87 65 -60T94 0H91Q73 0 63 9T53 37Q53 42 56 63Q62 99 103 99H115Q133 99 143 89Z" />
<glyph unicode="-" glyph-name="hyphen" horiz-adv-x="480" d="M50 337H410L402 277H42L50 337Z" />
<glyph unicode="." glyph-name="period" horiz-adv-x="308" d="M53 0T53 35L54 45L55 54Q63 99 107 99H115Q154 99 154 66Q154 58 153 54L152 45Q146 0 101 0H93Q53 0 53 35Z" />
<glyph unicode="/" glyph-name="slash" horiz-adv-x="334" d="M337 811H401L-11 -55H-75L337 811Z" />
<glyph unicode="0" glyph-name="zero" horiz-adv-x="620" d="M143 -12T88 54T33 244Q33 292 40 338Q65 516 145 613T352 710Q459 710 513 641T568 443Q568 399 560 338Q536 171 457 80T251 -12Q143 -12 88 54ZM355 50T414 125T492 338Q500 396 500 438Q500 540
461 594T344 648Q248 648 189 568T108 338Q102 292 102 251Q102 153 141 102T260 50Q355 50 414 125Z" />
<glyph unicode="1" glyph-name="one" horiz-adv-x="459" d="M332 55L325 0H21L28 55H151L229 617Q201 596 165 579T104 562Q87 562 78 571T68 599Q68 607 69 612Q118 616 171 639T261 700H306L216 55H332Z" />
<glyph unicode="2" glyph-name="two" horiz-adv-x="537" d="M492 441T440 362T311 215T117 59H422L414 0H-5L0 36Q146 143 229 211T369 359T427 521Q427 581 394 611T299 642Q229 642 187 605T125 483Q78 483 78 518Q78 570 109 611T192 676T304 700Q357 700 399
679T467 618T492 524Q492 441 440 362Z" />
<glyph unicode="3" glyph-name="three" horiz-adv-x="549" d="M397 337T426 303T455 214Q455 140 420 90T327 16T198 -9Q136 -9 89 5T15 40T-11 81Q-11 104 12 120Q44 87 91 68T200 49Q250 49 293 68T363 122T389 206Q389 263 353 294T261 325L229 324Q207 322
194 322Q180 322 172 338T163 370Q163 379 171 379H270Q341 379 382 421T424 526Q424 579 390 610T288 642Q228 642 183 614T107 532Q91 532 82 540T72 563Q72 590 101 622T179 677T288 700Q345 700 390 678T462 615T488 526Q488 458 454 415T354 353Q397 337 426
303Z" />
<glyph unicode="4" glyph-name="four" horiz-adv-x="522" d="M298 173H-9L-4 209Q108 341 167 451T256 700Q268 703 279 703Q315 703 315 664Q315 611 279 531T189 370T86 232H306L337 452H401L370 232H471L463 173H362L338 0H274L298 173Z" />
<glyph unicode="5" glyph-name="five" horiz-adv-x="556" d="M386 453T439 403T492 268Q492 191 458 128T363 28T226 -9Q170 -9 126 8T58 51T34 106Q34 146 78 155Q109 49 235 49Q293 49 336 77T403 155T426 265Q426 330 390 362T286 394Q236 394 198 377T124
320L76 327L152 700H497L489 642H201L153 408Q215 453 298 453Q386 453 439 403Z" />
<glyph unicode="6" glyph-name="six" horiz-adv-x="577" d="M383 449T436 395T489 250Q489 175 457 117T367 26T234 -7Q167 -7 121 24T51 107T28 225Q28 337 83 449T228 633T418 705Q446 705 456 691T467 649Q390 649 322 616T203 524T124 393Q158 416 204 432T295
449Q383 449 436 395ZM326 52T375 105T424 248Q424 319 388 354T288 390Q234 390 185 368T100 308Q93 273 93 231Q93 152 129 102T241 52Q326 52 375 105Z" />
<glyph unicode="7" glyph-name="seven" horiz-adv-x="482" d="M497 700L492 666Q356 480 294 348T204 72L190 0H158Q121 0 121 32Q121 39 122 44L128 79Q150 211 225 358T413 642H124Q82 642 87 679Q89 688 93 700H497Z" />
<glyph unicode="8" glyph-name="eight" horiz-adv-x="564" d="M429 331T456 287T483 192Q483 91 413 41T223 -9Q130 -9 74 37T17 159Q17 238 61 286T192 361Q140 388 114 428T87 515Q87 575 118 618T203 683T324 705Q380 705 421 683T485 624T508 539Q508 469
472 428T365 359Q429 331 456 287ZM153 470T188 437T283 385Q364 408 404 442T444 540Q444 589 410 618T316 648Q245 648 199 613T153 516Q153 470 188 437ZM313 49T365 86T417 192Q417 237 385 269T275 329Q212 310 172 290T107 239T83 161Q83 111 124 80T232
49Q313 49 365 86Z" />
<glyph unicode="9" glyph-name="nine" horiz-adv-x="577" d="M422 700T470 637T519 474Q519 357 466 246T322 64T129 -7Q86 -7 86 34Q86 44 87 49Q203 49 291 119T422 302Q391 278 346 262T255 246Q161 246 109 297T56 439Q56 512 91 572T185 666T315 700Q422
700 470 637ZM453 432T453 474Q453 550 419 595T305 641Q249 641 208 615T144 544T121 442Q121 371 157 338T264 305Q319 305 365 327T445 386Q453 432 453 474Z" />
<glyph unicode=":" glyph-name="colon" horiz-adv-x="324" d="M104 362T104 397L105 407L106 416Q114 461 158 461H166Q205 461 205 428Q205 420 204 416L203 407Q197 362 152 362H144Q104 362 104 397ZM53 0T53 35L54 45L55 54Q63 99 107 99H115Q154 99 154 66Q154
58 153 54L152 45Q146 0 101 0H93Q53 0 53 35Z" />
<glyph unicode=";" glyph-name="semicolon" horiz-adv-x="324" d="M133 99T143 89T154 61Q154 46 151 29Q145 -6 130 -34T91 -93Q59 -133 41 -133Q26 -133 14 -121Q47 -87 65 -60T94 0H91Q73 0 63 9T53 37Q53 42 56 63Q62 99 103 99H115Q133 99 143 89ZM104 362T104
397L105 407L106 416Q114 461 158 461H166Q205 461 205 428Q205 420 204 416L203 407Q197 362 152 362H144Q104 362 104 397Z" />
<glyph unicode="&lt;" glyph-name="less" horiz-adv-x="600" d="M608 -7L69 272L60 336L521 613L532 538L138 304L598 68L608 -7Z" />
<glyph unicode="=" glyph-name="equal" horiz-adv-x="600" d="M78 465H538L529 403H69L78 465ZM49 261H509L501 199H41L49 261Z" />
<glyph unicode="&gt;" glyph-name="greater" horiz-adv-x="600" d="M540 336L531 272L-8 -7L2 68L462 304L68 538L79 613L540 336Z" />
<glyph unicode="?" glyph-name="question" horiz-adv-x="475" d="M160 229Q167 279 201 318T296 403Q346 441 369 472T392 548Q392 595 362 621T272 647Q209 647 172 615T109 529L54 558Q81 626 140 667T277 709Q359 709 409 665T460 549Q460 507 445 475T406
420T339 363Q284 319 257 289T224 215L220 189H154L160 229ZM119 0T119 35Q119 46 122 61Q126 81 138 90T173 99H181Q220 99 220 66Q220 50 218 42Q215 20 203 10T167 0H159Q119 0 119 35Z" />
<glyph unicode="@" glyph-name="at" horiz-adv-x="834" d="M510 143T493 159T475 203Q434 143 352 143Q295 143 263 176T231 271Q231 339 258 400T333 500T443 539Q484 539 510 523T546 474L561 523H615L536 267Q525 232 525 218Q525 194 550 194Q594 194 633
235T697 336T721 450Q721 517 689 566T600 642T470 669Q370 669 289 619T161 482T114 293Q114 212 148 152T245 60T392 28Q460 28 510 44T613 90Q630 75 628 60Q626 40 591 22T501 -8T385 -20Q285 -20 212 15T99 119T59 282Q59 402 114 501T265 659T475 717Q566
717 634 685T738 593T775 455Q775 380 743 308T657 189T538 143Q510 143 493 159ZM404 188T438 222T492 308T512 408Q512 451 492 472T436 494Q394 494 362 460T313 375T296 271Q296 188 363 188Q404 188 438 222Z" />
<glyph unicode="A" glyph-name="A" horiz-adv-x="620" d="M465 115T452 203H111Q71 110 32 0H-42Q39 213 123 380T314 700H389Q451 547 488 381T548 0H474Q465 115 452 203ZM443 263Q410 457 341 627Q227 461 137 263H443Z" />
<glyph unicode="B" glyph-name="B" horiz-adv-x="615" d="M490 342T517 302T544 209Q544 109 475 55T279 0H29L127 700H357Q452 700 504 657T557 535Q557 474 526 425T445 358Q490 342 517 302ZM484 589T452 614T349 640H190L155 385H315Q401 385 442 422T484
536Q484 589 452 614ZM381 60T426 95T472 211Q472 272 434 300T313 328H147L109 60H277Q381 60 426 95Z" />
<glyph unicode="C" glyph-name="C" horiz-adv-x="596" d="M176 -10T107 63T37 272Q37 405 78 504T197 656T378 710Q440 710 493 689T576 633Q554 594 533 594Q521 594 508 603Q448 645 378 645Q296 645 236 600T144 470T112 268Q112 56 311 56Q353 56 390 69T467
112Q480 111 487 102T494 78Q491 55 463 35T393 2T303 -10Q176 -10 107 63Z" />
<glyph unicode="D" glyph-name="D" horiz-adv-x="672" d="M467 700T540 627T613 419Q613 292 568 198T440 52T246 0H29L127 700H334Q467 700 540 627ZM384 60T461 154T539 418Q539 527 485 583T326 640H191L109 60H244Q384 60 461 154Z" />
<glyph unicode="E" glyph-name="E" horiz-adv-x="560" d="M191 640L155 388H453L445 328H147L109 60H456Q451 23 440 12T396 0H29L127 700H545L537 640H191Z" />
<glyph unicode="F" glyph-name="F" horiz-adv-x="530" d="M191 640L156 393H453L445 333H148L101 0H29L127 700H539L531 640H191Z" />
<glyph unicode="G" glyph-name="G" horiz-adv-x="666" d="M317 647T253 603T155 476T121 279Q121 168 173 111T326 53Q379 53 421 66T489 103L519 311H377Q361 311 354 319T347 347Q347 360 349 373H599L557 73Q518 33 459 12T328 -10Q193 -10 120 65T47 279Q47
413 90 510T216 658T410 710Q481 710 542 683T629 613Q615 594 605 586T584 578Q574 578 568 580T554 590Q522 619 486 633T405 647Q317 647 253 603Z" />
<glyph unicode="H" glyph-name="H" horiz-adv-x="680" d="M635 700L537 0H465L511 330H147L101 0H29L127 700H199L156 390H520L563 700H635Z" />
<glyph unicode="I" glyph-name="I" horiz-adv-x="350" d="M180 700H252L154 0H82L180 700Z" />
<glyph unicode="J" glyph-name="J" horiz-adv-x="427" d="M54 -10T20 -2T-31 17Q-28 44 -18 57T4 70Q8 70 36 61T99 52Q218 52 235 183L308 700H380L307 183Q295 94 237 42T88 -10Q54 -10 20 -2Z" />
<glyph unicode="K" glyph-name="K" horiz-adv-x="610" d="M354 349T385 289L528 3Q504 -8 484 -8Q466 -8 456 -2T438 22L320 268Q303 305 279 317T200 330H161L115 0H43L141 700H213L170 392H229Q247 392 255 391L535 700H618L317 371Q354 349 385 289Z" />
<glyph unicode="L" glyph-name="L" horiz-adv-x="513" d="M449 60L441 0H29L127 700H199L109 60H449Z" />
<glyph unicode="M" glyph-name="M" horiz-adv-x="829" d="M723 615T723 512Q723 288 696 0H624Q652 292 652 516Q652 568 651 592Q598 497 542 382T396 70H344Q316 226 290 347T231 595Q141 302 91 0H19Q51 191 95 372T190 700H270Q318 538 342 437T388 218Q437
331 489 431T637 700H717Q723 615 723 512Z" />
<glyph unicode="N" glyph-name="N" horiz-adv-x="690" d="M641 700L562 137L559 114Q550 60 550 27Q550 14 542 7T521 0H471L478 54Q479 61 479 77Q479 125 455 165L185 600L101 0H29L127 700H185Q199 700 205 696T220 680L502 224L569 700H641Z" />
<glyph unicode="O" glyph-name="O" horiz-adv-x="680" d="M211 -10T153 25T64 127T33 283Q33 412 75 508T194 657T377 710Q496 710 563 635T631 428Q631 290 591 192T474 42T289 -10Q211 -10 153 25ZM419 54T488 151T557 424Q557 531 509 588T372 646Q292 646
232 602T140 476T107 284Q107 176 156 115T294 54Q419 54 488 151Z" />
<glyph unicode="P" glyph-name="P" horiz-adv-x="615" d="M459 700T522 651T585 505Q585 380 511 316T292 251H136L101 0H29L127 700H335Q459 700 522 651ZM400 313T456 359T512 505Q512 573 466 605T326 638H191L145 313H281Q400 313 456 359Z" />
<glyph unicode="Q" glyph-name="Q" horiz-adv-x="680" d="M631 270T579 164T427 16Q443 -11 475 -57Q463 -68 448 -75T416 -82Q390 -82 375 -53L351 -5Q318 -10 289 -10Q211 -10 153 25T64 127T33 283Q33 412 75 508T194 657T377 710Q496 710 563 635T631 428Q631
270 579 164ZM473 107T515 197T557 424Q557 531 509 588T372 646Q292 646 232 602T140 476T107 284Q107 176 156 115T294 54Q313 54 322 55L278 149H354Q365 125 393 73Q473 107 515 197Z" />
<glyph unicode="R" glyph-name="R" horiz-adv-x="629" d="M402 277T420 240L528 3Q504 -8 484 -8Q466 -8 455 -1T438 22L351 218Q333 260 301 277T210 295H142L101 0H29L127 700H354Q465 700 526 655T587 528Q587 472 560 424T484 343T377 301Q402 277 420 240ZM301
357Q400 357 456 401T512 523Q512 580 470 609T345 638H191L151 357H301Z" />
<glyph unicode="S" glyph-name="S" horiz-adv-x="642" d="M208 -10T152 9T64 62T32 138Q32 164 48 180T93 197Q99 127 147 90T279 52Q376 52 429 91T482 202Q482 241 467 265T414 307T307 343Q199 370 152 414T104 530Q104 583 135 624T221 687T349 710Q448 710
513 666T589 547Q581 540 569 536T545 532Q532 532 524 538T510 559Q491 604 449 627T344 650Q268 650 223 618T177 532Q177 499 190 478T234 440T325 407Q414 382 464 356T536 298T558 219Q558 110 485 50T278 -10Q208 -10 152 9Z" />
<glyph unicode="T" glyph-name="T" horiz-adv-x="534" d="M561 694T561 682Q561 663 550 652T520 640H335L246 0H174L263 640H48L56 700H560Q561 694 561 682Z" />
<glyph unicode="U" glyph-name="U" horiz-adv-x="708" d="M177 -10T118 39T59 190Q59 214 64 251L127 700H199L135 241Q132 217 132 196Q132 122 174 87T306 52Q409 52 463 97T530 241L594 700H666L603 251Q584 117 510 54T297 -10Q177 -10 118 39Z" />
<glyph unicode="V" glyph-name="V" horiz-adv-x="638" d="M649 700Q592 517 507 345T300 0H225Q153 172 116 343T71 700H147Q153 378 273 79Q477 378 573 700H649Z" />
<glyph unicode="W" glyph-name="W" horiz-adv-x="856" d="M882 700Q841 560 783 410T609 0H527Q493 212 478 330T453 551Q415 447 366 329T225 0H143Q99 240 80 397T56 700H128Q129 576 144 445T197 95Q252 213 304 336T451 700H493L496 676Q526 455 545 322T581
96Q674 302 726 436T814 700H882Z" />
<glyph unicode="X" glyph-name="X" horiz-adv-x="582" d="M551 602T491 529T333 370Q383 312 417 263T474 148T501 0H424Q421 96 384 168T279 322Q188 241 131 169T44 0H-33Q-7 82 35 147T124 262T238 370Q189 428 159 473T106 575T80 700H155Q161 617 195 554T292
417Q374 489 426 552T509 700H584Q551 602 491 529Z" />
<glyph unicode="Y" glyph-name="Y" horiz-adv-x="590" d="M611 700L315 294L274 0H202L243 294L61 700H139L289 361L534 700H611Z" />
<glyph unicode="Z" glyph-name="Z" horiz-adv-x="580" d="M552 636L90 60H479L471 0H-3L5 60L474 640H85L93 700H561L552 636Z" />
<glyph unicode="[" glyph-name="bracketleft" horiz-adv-x="389" d="M163 842H376L369 792H226L110 -35H253L246 -85H33L163 842Z" />
<glyph unicode="\" glyph-name="backslash" horiz-adv-x="334" d="M345 -55L-67 811H-3L409 -55H345Z" />
<glyph unicode="]" glyph-name="bracketright" horiz-adv-x="389" d="M226 -85H13L20 -35H163L279 792H136L143 842H356L226 -85Z" />
<glyph unicode="^" glyph-name="asciicircum" horiz-adv-x="657" d="M352 791H411L583 324H511L368 711L122 324H50L352 791Z" />
<glyph unicode="_" glyph-name="underscore" horiz-adv-x="684" d="M-72 -102H612L604 -162H-80L-72 -102Z" />
<glyph unicode="`" glyph-name="grave" horiz-adv-x="243" d="M49 783H130L208 632H146L49 783Z" />
<glyph unicode="a" glyph-name="a" horiz-adv-x="558" d="M438 137Q434 110 434 87Q434 63 439 48T455 17Q444 7 430 1T403 -5Q383 -5 373 16T364 81Q329 41 279 16T169 -10Q98 -10 55 27T11 133Q11 231 110 282T399 341L403 373Q405 384 405 404Q405 454 376
479T287 504Q235 504 196 484T113 424Q105 418 97 418Q87 418 76 427T57 451Q164 560 297 560Q380 560 426 519T473 406Q473 384 471 373L438 137ZM233 46T282 76T373 160L391 286Q229 279 155 243T81 134Q81 46 182 46Q233 46 282 76Z" />
<glyph unicode="b" glyph-name="b" horiz-adv-x="610" d="M443 560T500 500T557 337Q557 239 527 161T436 36T284 -10Q230 -10 188 6T118 55Q110 30 99 15T75 0Q44 0 26 12Q51 53 62 132L155 791H225L186 514Q260 560 349 560Q443 560 500 500ZM349 48T395 87T464
192T487 337Q487 418 445 461T337 504Q257 504 177 447L131 123Q156 87 194 68T282 48Q349 48 395 87Z" />
<glyph unicode="c" glyph-name="c" horiz-adv-x="547" d="M143 -10T80 54T17 227Q17 325 52 401T153 518T302 560Q396 560 449 513T500 387Q489 382 476 379T453 375Q445 375 439 382T433 404Q433 453 397 479T295 506Q234 506 187 472T114 376T88 232Q88 148
132 97T248 46Q307 46 346 71T419 157Q436 157 445 148T455 121Q455 85 428 55T354 8T249 -10Q143 -10 80 54Z" />
<glyph unicode="d" glyph-name="d" horiz-adv-x="598" d="M468 128Q462 85 462 52Q462 30 465 8Q440 -4 417 -4Q393 -4 393 50V61Q353 24 310 7T214 -10Q121 -10 69 47T16 207Q16 312 53 392T157 516T313 560Q350 560 390 547T454 513L493 791H561L468 128ZM324
46T401 136L444 447Q425 472 386 489T306 506Q240 506 190 470T113 367T86 212Q86 130 120 88T221 46Q324 46 401 136Z" />
<glyph unicode="e" glyph-name="e" horiz-adv-x="560" d="M99 268Q97 238 97 222Q97 139 137 94T249 48Q311 48 350 67T416 132Q424 146 438 146Q453 146 480 126Q450 60 390 25T246 -10Q144 -10 85 51T26 219Q26 380 100 470T306 560Q403 560 454 510T506 365Q506
318 498 268H99ZM223 506T173 459T106 322H438Q441 342 441 369Q441 437 406 471T301 506Q223 506 173 459Z" />
<glyph unicode="f" glyph-name="f" horiz-adv-x="335" d="M397 782T397 739Q397 728 391 719T380 709Q353 724 313 724Q271 724 246 699T213 623L203 550H327L320 498H196L126 0H58L127 498H25L32 550H135L145 624Q156 696 200 739T309 782Q397 782 397 739Z" />
<glyph unicode="g" glyph-name="g" horiz-adv-x="585" d="M585 535T578 515Q500 515 468 492Q498 454 498 403Q498 184 253 184Q111 184 111 141Q111 120 149 110T266 100Q370 100 426 67T483 -28Q483 -111 412 -156T210 -202Q100 -202 42 -168T-17 -70Q-17 -22
16 13T105 57V60Q79 67 65 85T50 128Q50 159 75 182T141 214Q105 236 85 271T64 347Q64 452 125 506T305 560Q381 560 432 526Q461 550 493 564T554 579Q585 579 585 550Q585 535 578 515ZM347 240T387 279T427 403Q427 456 396 481T298 506Q215 506 175 468T135
350Q135 240 261 240Q347 240 387 279ZM150 38T103 12T55 -64Q55 -106 94 -126T213 -146Q311 -146 361 -119T411 -37Q411 3 371 20T241 38Q150 38 103 12Z" />
<glyph unicode="h" glyph-name="h" horiz-adv-x="630" d="M451 560T494 520T537 408Q537 398 535 376L482 0H414L466 369Q468 391 468 399Q468 450 441 477T361 504Q316 504 262 484T162 429L102 0H34L145 791H213L171 494Q219 526 271 543T374 560Q451 560 494 520Z" />
<glyph unicode="i" glyph-name="i" horiz-adv-x="288" d="M130 550H198L121 0H53L130 550ZM391 651T391 684Q391 692 392 696L393 705Q399 750 444 750H452Q492 750 492 715L491 705L490 696Q483 651 438 651H430Q391 651 391 684Z" />
<glyph unicode="j" glyph-name="j" horiz-adv-x="270" d="M-70 -192T-93 -186T-127 -169Q-133 -162 -133 -152Q-133 -140 -126 -129T-113 -117Q-82 -134 -39 -134Q-9 -134 10 -116T34 -62L120 550H188L103 -53Q93 -121 54 -156T-50 -192Q-70 -192 -93 -186ZM381
651T381 684Q381 692 382 696L383 705Q389 750 434 750H442Q482 750 482 715L481 705L480 696Q473 651 428 651H420Q381 651 381 684Z" />
<glyph unicode="k" glyph-name="k" horiz-adv-x="547" d="M323 294T340 259L472 0Q456 0 432 -2Q414 -4 410 -4Q391 -4 383 12L284 220Q261 267 185 264L139 262L102 0H34L145 791H213L148 324L186 325Q208 326 223 333T254 357L431 550H515L306 332Q287 313 276
307Q323 294 340 259Z" />
<glyph unicode="l" glyph-name="l" horiz-adv-x="268" d="M154 791H222L111 0H43L154 791Z" />
<glyph unicode="m" glyph-name="m" horiz-adv-x="912" d="M746 560T783 523T821 424Q821 415 819 395L764 0H695L750 392Q752 412 752 421Q752 506 661 506Q575 506 492 428Q492 420 490 404L434 0H366L422 402Q423 408 423 421Q423 460 399 483T333 506Q290 506
249 487T163 427L103 0H35L86 363Q100 466 100 518Q100 535 99 539Q132 554 152 554Q175 554 175 517Q175 512 173 496V493Q215 529 257 544T352 560Q399 560 433 539T482 480Q530 522 577 541T682 560Q746 560 783 523Z" />
<glyph unicode="n" glyph-name="n" horiz-adv-x="610" d="M519 560T519 420Q519 406 515 372L481 128Q470 58 470 33Q470 19 473 7Q448 -5 419 -5Q410 -5 406 2T402 27Q402 54 409 102L447 373Q450 396 450 413Q450 462 428 484T356 506Q266 506 160 417L101 0H33L84
363Q98 466 98 518Q98 534 97 539Q130 554 150 554Q173 554 173 517Q173 512 171 496L170 487Q220 525 269 542T370 560Q519 560 519 420Z" />
<glyph unicode="o" glyph-name="o" horiz-adv-x="548" d="M15 -10T15 200Q15 312 48 393T145 517T295 560Q495 560 495 353Q495 240 462 159T365 34T215 -10Q15 -10 15 200ZM319 46T372 125T425 350Q425 428 391 466T288 504Q192 504 139 425T85 202Q85 122 119
84T223 46Q319 46 372 125Z" />
<glyph unicode="p" glyph-name="p" horiz-adv-x="598" d="M440 560T492 502T545 338Q545 233 509 155T407 33T252 -10Q211 -10 172 -3T105 17L72 -220H4L86 363Q100 466 100 514Q100 523 98 539Q131 554 151 554Q174 554 174 518Q174 508 172 496Q245 560 344
560Q440 560 492 502ZM322 46T371 81T446 181T473 336Q473 419 439 461T337 504Q245 504 162 423L113 76Q170 46 255 46Q322 46 371 81Z" />
<glyph unicode="q" glyph-name="q" horiz-adv-x="608" d="M526 554T545 539Q535 521 522 467T501 362L419 -220H351L386 30Q353 9 318 0T238 -10Q172 -10 122 19T45 101T17 225Q17 326 51 402T148 519T294 560Q399 560 458 504Q475 554 499 554Q526 554 545 539ZM442
430L443 434Q417 470 379 488T292 507Q230 507 184 473T113 376T88 227Q88 141 131 92T251 42Q332 42 395 91L442 430Z" />
<glyph unicode="r" glyph-name="r" horiz-adv-x="400" d="M393 557T393 517Q393 498 377 482Q354 495 313 495Q247 495 199 442T138 303L96 0H28L105 550H173L159 451Q189 498 235 527T327 557Q393 557 393 517Z" />
<glyph unicode="s" glyph-name="s" horiz-adv-x="485" d="M143 -10T97 4T24 41T-4 92Q-4 127 32 136Q54 95 97 71T198 46Q264 46 303 74T342 154Q342 180 326 198T284 228T216 256Q163 275 130 291T74 337T51 413Q51 484 107 522T246 560Q316 560 365 535T438
462Q410 437 393 437Q381 437 370 451Q350 479 321 492T246 506Q189 506 155 482T120 417Q120 377 152 355T249 309Q301 290 333 273T388 227T411 155Q411 79 353 35T196 -10Q143 -10 97 4Z" />
<glyph unicode="t" glyph-name="t" horiz-adv-x="374" d="M145 134Q143 118 143 113Q143 50 205 50Q248 50 294 67Q305 59 305 40Q305 27 301 20T285 6Q255 -10 200 -10Q141 -10 107 19T73 99Q73 107 75 121L128 496H24L32 550H136L157 700H225L204 550H348L340
496H196L145 134Z" />
<glyph unicode="u" glyph-name="u" horiz-adv-x="610" d="M476 113Q471 76 471 54Q471 32 476 7Q452 -5 431 -5Q413 -5 407 4T400 41Q400 60 401 72Q369 32 322 11T220 -10Q141 -10 98 30T55 143Q55 161 58 182L110 550H178L126 182Q123 163 123 147Q123 44 230
44Q281 44 327 69T411 144L468 550H537L476 113Z" />
<glyph unicode="v" glyph-name="v" horiz-adv-x="485" d="M489 550Q455 396 390 263T218 0H153Q92 112 63 227T33 471Q33 510 36 550H104Q102 502 102 481Q102 362 124 265T196 74Q280 179 333 292T421 550H489Z" />
<glyph unicode="w" glyph-name="w" horiz-adv-x="760" d="M742 550Q660 247 513 0H451Q415 112 398 206T377 404Q344 301 300 207T189 0H125Q87 114 70 245T53 550H121Q120 523 120 473Q120 359 132 267T170 91Q289 280 364 550H430Q427 281 494 89Q607 292 662 550H742Z" />
<glyph unicode="x" glyph-name="x" horiz-adv-x="484" d="M459 479T408 419T269 284Q316 232 346 192T394 103T411 0H337Q340 64 309 119T219 241Q140 173 94 119T33 0H-41Q-29 54 3 102T76 191T180 285Q113 361 79 420T48 550H122Q120 493 148 441T230 328Q301
388 344 440T402 550H476Q459 479 408 419Z" />
<glyph unicode="y" glyph-name="y" horiz-adv-x="485" d="M494 550L198 -42Q157 -124 112 -159T4 -194Q-33 -194 -54 -183T-76 -151Q-76 -132 -56 -120Q-46 -127 -27 -132T12 -137Q93 -137 154 9L34 550H104L201 107L420 550H494Z" />
<glyph unicode="z" glyph-name="z" horiz-adv-x="500" d="M475 503L83 58H421L413 0H-27L-21 48L373 492H68L76 550H482L475 503Z" />
<glyph unicode="{" glyph-name="braceleft" horiz-adv-x="364" d="M116 -91T88 -64T60 11Q60 19 62 35L92 248Q93 255 93 269Q93 326 38 337L43 374Q80 381 98 404T122 464L152 677Q160 735 198 768T285 802H333L326 752H291Q228 752 217 680L188 474Q181 420
159 394T96 357L95 354Q127 347 142 327T157 270Q157 250 155 238L126 32Q125 26 125 14Q125 -40 180 -40H215L208 -91H160Q116 -91 88 -64Z" />
<glyph unicode="|" glyph-name="bar" horiz-adv-x="243" d="M147 802H206L92 -12H33L147 802Z" />
<glyph unicode="}" glyph-name="braceright" horiz-adv-x="364" d="M248 802T276 775T304 700Q304 692 302 676L272 463Q271 456 271 442Q271 385 326 374L321 337Q284 330 266 307T242 247L212 34Q204 -24 166 -57T79 -91H31L38 -41H73Q136 -41 147 31L176 237Q183
291 205 317T268 354L269 357Q237 364 222 384T207 441Q207 461 209 473L238 679Q239 685 239 697Q239 751 184 751H149L156 802H204Q248 802 276 775Z" />
<glyph unicode="~" glyph-name="asciitilde" horiz-adv-x="600" d="M29 261Q98 356 191 356Q223 356 245 346T296 314Q323 294 343 285T392 275Q430 275 453 295T499 356L538 320Q520 272 479 243T381 213Q349 213 326 224T273 256Q246 275 226 284T180 294Q147
294 120 273T68 213L29 261Z" />
<glyph unicode="&#xa0;" glyph-name="uni00A0" horiz-adv-x="258" />
<glyph unicode="&#xa1;" glyph-name="exclamdown" horiz-adv-x="243" d="M203 560T203 525L202 515L201 506Q194 461 149 461H141Q102 461 102 494Q102 502 103 506L104 515Q110 560 155 560H163Q203 560 203 525ZM104 -140H18L102 354H158L104 -140Z" />
<glyph unicode="&#xa2;" glyph-name="cent" horiz-adv-x="547" d="M433 461T384 487L183 59Q214 46 248 46Q307 46 346 71T419 157Q436 157 445 148T455 121Q455 85 428 55T354 8T249 -10Q198 -10 157 5L117 -80H57L109 30Q65 60 41 110T17 227Q17 325 52 401T153
518T302 560Q329 560 357 555L396 638H455L408 539Q454 518 478 479T500 387Q489 382 476 379T453 375Q445 375 439 382T433 404Q433 461 384 487ZM332 503Q316 506 295 506Q234 506 187 472T114 376T88 232Q88 187 101 151T138 91L332 503Z" />
<glyph unicode="&#xa3;" glyph-name="sterling" horiz-adv-x="609" d="M241 652T209 600T176 445Q176 423 178 375H349L341 317H180Q181 299 181 268Q181 160 138 95Q168 73 203 61T273 48Q330 48 366 75T423 173L483 161Q466 81 409 36T275 -10Q216 -10 176 4T99
50Q47 4 -43 -10L-33 59Q50 73 82 125T115 274Q115 301 114 317H1L9 375H112L111 445Q111 573 165 641T332 710Q418 710 474 665T535 540Q509 523 487 523Q468 523 463 550Q453 598 421 625T329 652Q241 652 209 600Z" />
<glyph unicode="&#xa4;" glyph-name="currency" horiz-adv-x="609" d="M-7 122L60 181Q22 233 22 310Q22 332 25 353Q39 451 108 523L57 582L103 624L157 563Q197 593 242 608T334 624Q429 624 496 563L564 624L600 582L533 523Q571 468 571 396Q571 376 568 353Q562
304 541 260T485 181L536 122L488 81L436 140Q351 81 258 81Q162 81 97 140L27 81L-7 122ZM325 146T375 172T457 246T498 353Q500 365 500 387Q500 465 452 512T325 560Q267 560 218 534T136 460T95 353Q93 341 93 319Q93 241 140 194T267 146Q325 146 375 172Z"
/>
<glyph unicode="&#xa5;" glyph-name="yen" horiz-adv-x="590" d="M375 376H508L500 320H334L315 294L305 224H486L478 168H297L274 0H202L225 168H44L52 224H233L243 294L231 320H66L74 376H206L61 700H139L289 361L534 700H611L375 376Z" />
<glyph unicode="&#xa6;" glyph-name="brokenbar" horiz-adv-x="243" d="M147 802H206L163 495H104L147 802ZM76 295H135L92 -12H33L76 295Z" />
<glyph unicode="&#xa7;" glyph-name="section" horiz-adv-x="480" d="M339 270T339 277Q339 341 276 373L152 435Q118 452 100 481T81 547Q81 597 107 633T177 688T272 707Q325 707 364 689T423 638T440 565L375 556Q376 600 352 624T269 649Q211 649 179 622T146
544Q146 523 157 508T194 480L327 414Q365 395 384 361T404 284Q404 264 402 254H337Q339 270 339 277ZM99 -88T53 -48T11 54L77 63Q74 -30 182 -30Q240 -30 272 -2T305 76Q305 97 294 112T257 139L125 205Q86 225 67 259T47 337Q47 347 49 365H114Q112 349 112
342Q112 278 175 246L300 184Q333 167 352 138T371 73Q371 22 345 -14T274 -69T179 -88Q99 -88 53 -48Z" />
<glyph unicode="&#xa8;" glyph-name="dieresis" horiz-adv-x="302" d="M38 639T38 674L39 684L40 693Q46 738 91 738H99Q139 738 139 703L138 693L137 684Q131 639 86 639H78Q38 639 38 674ZM242 639T242 674L243 684L244 693Q250 738 295 738H303Q343 738 343
703L342 693L341 684Q335 639 290 639H282Q242 639 242 674Z" />
<glyph unicode="&#xa9;" glyph-name="copyright" horiz-adv-x="774" d="M241 -10T168 31T55 144T15 309Q15 423 66 514T210 658T419 710Q518 710 591 671T703 562T743 400Q743 285 693 192T552 44T339 -10Q241 -10 168 31ZM439 39T518 85T641 214T686 400Q686
479 652 538T557 629T419 661Q319 661 240 617T117 493T73 309Q73 230 107 169T202 73T339 39Q439 39 518 85ZM284 132T237 180T190 310Q190 380 218 439T297 532T415 567Q549 567 570 442L519 423Q513 469 488 493T412 518Q334 518 291 461T248 316Q248 256 278
219T367 181Q451 181 493 260L542 239Q480 132 363 132Q284 132 237 180Z" />
<glyph unicode="&#xaa;" glyph-name="ordfeminine" horiz-adv-x="380" d="M360 574T348 500Q336 428 336 403Q336 383 341 370Q328 360 304 360Q278 360 278 399Q278 409 279 415Q255 389 227 374T154 359Q109 359 80 383T51 449Q51 502 85 529T172 566T303 577Q304
586 304 603Q304 667 233 667Q180 667 143 639Q131 630 126 628T112 625Q100 625 93 632T85 652Q116 682 154 697T246 712Q293 712 326 685T360 605Q360 574 348 500ZM196 403T232 423T287 472Q291 490 297 535Q206 534 156 519T106 451Q106 430 120 417T161 403Q196
403 232 423Z" />
<glyph unicode="&#xab;" glyph-name="guillemotleft" horiz-adv-x="500" d="M208 288L359 452H421L279 288L374 117H312L208 288ZM53 288L204 452H266L124 288L219 117H157L53 288Z" />
<glyph unicode="&#xac;" glyph-name="logicalnot" horiz-adv-x="600" d="M464 307H36L44 367H534L499 117H437L464 307Z" />
<glyph unicode="&#xad;" glyph-name="uni00AD" horiz-adv-x="380" d="M30 337H330L322 277H22L30 337Z" />
<glyph unicode="&#xae;" glyph-name="registered" horiz-adv-x="774" d="M518 710T591 671T703 562T743 400Q743 285 693 192T552 44T339 -10Q241 -10 168 31T55 144T15 309Q15 423 66 514T210 658T419 710Q518 710 591 671ZM439 39T518 85T641 214T686 400Q686
479 652 538T557 629T419 661Q319 661 240 617T117 493T73 309Q73 230 107 169T202 73T339 39Q439 39 518 85ZM487 543T523 515T560 436Q560 380 529 345T444 300L516 145H453L387 297H297L275 145H218L274 543H427Q487 543 523 515ZM500 344T500 436Q500 496 417
496H325L303 344H396Q500 344 500 436Z" />
<glyph unicode="&#xaf;" glyph-name="overscore" horiz-adv-x="243" d="M1 714H327L319 654H-7L1 714Z" />
<glyph unicode="&#xb0;" glyph-name="degree" horiz-adv-x="438" d="M172 481T131 522T90 628Q90 675 112 715T174 778T268 802Q333 802 373 761T414 655Q414 608 393 568T331 505T236 481Q172 481 131 522ZM298 528T330 562T362 655Q362 701 336 728T265 755Q206
755 174 720T141 628Q141 582 167 555T239 528Q298 528 330 562Z" />
<glyph unicode="&#xb1;" glyph-name="plusminus" horiz-adv-x="600" d="M262 348H32L40 407H270L301 629H362L331 407H560L552 348H323L291 125H230L262 348ZM-9 59H511L503 0H-17L-9 59Z" />
<glyph unicode="&#xb2;" glyph-name="uni00B2" horiz-adv-x="333" d="M339 523T307 480T229 406T107 332H299L292 282H4L11 326L38 341Q122 387 170 418T251 489T284 579Q284 618 265 639T207 660Q164 660 136 638T98 575Q60 575 60 605Q60 630 79 654T133 694T207
710Q272 710 305 673T339 576Q339 523 307 480Z" />
<glyph unicode="&#xb3;" glyph-name="uni00B3" horiz-adv-x="351" d="M298 495T314 471T331 411Q331 350 285 314T159 278Q118 278 86 288T35 314T17 349Q17 378 50 383Q73 353 99 339T165 324Q219 324 247 347T275 411Q275 443 257 461T198 480Q187 480 176 479T155
478Q147 478 139 493T131 520Q131 527 138 527H197Q246 527 267 548T289 604Q289 633 270 649T212 665Q172 665 146 650T95 601Q86 601 78 608T69 627Q69 648 88 667T142 698T216 710Q272 710 307 681T343 604Q343 571 326 545T271 506Q298 495 314 471Z" />
<glyph unicode="&#xb4;" glyph-name="acute" horiz-adv-x="243" d="M223 783H312L164 632H94L223 783Z" />
<glyph unicode="&#xb6;" glyph-name="paragraph" horiz-adv-x="550" d="M232 328Q175 328 131 351T61 416T36 507Q36 581 70 636T167 720T309 750H598L591 701H514L416 0H356L454 701H344L246 0H186L232 328Z" />
<glyph unicode="&#xb7;" glyph-name="middot" horiz-adv-x="308" d="M86 238T86 273L87 283L88 292Q96 337 140 337H148Q187 337 187 304Q187 296 186 292L185 283Q179 238 134 238H126Q86 238 86 273Z" />
<glyph unicode="&#xb8;" glyph-name="cedilla" horiz-adv-x="243" d="M99 -55T122 -73T145 -123Q145 -173 105 -201T10 -229Q-33 -229 -55 -220T-78 -192Q-78 -185 -73 -173Q-32 -184 10 -184Q42 -184 61 -170T80 -133Q80 -120 69 -110T35 -100Q16 -100 -6 -107L-19
-75L49 0H107L54 -55H61Q99 -55 122 -73Z" />
<glyph unicode="&#xb9;" glyph-name="uni00B9" horiz-adv-x="379" d="M291 330L284 282H58L65 330H155L199 642Q152 606 122 606Q104 606 97 616T92 645Q123 648 158 666T221 710H260L207 330H291Z" />
<glyph unicode="&#xba;" glyph-name="ordmasculine" horiz-adv-x="380" d="M119 357T85 394T51 494Q51 554 72 603T135 681T233 710Q298 710 331 672T365 570Q365 511 343 463T280 386T184 357Q119 357 85 394ZM251 402T280 450T309 572Q309 665 227 665Q166 665
137 616T107 495Q107 402 190 402Q251 402 280 450Z" />
<glyph unicode="&#xbb;" glyph-name="guillemotright" horiz-adv-x="500" d="M292 281L141 117H79L221 281L126 452H188L292 281ZM447 281L296 117H234L376 281L281 452H343L447 281Z" />
<glyph unicode="&#xbc;" glyph-name="onequarter" horiz-adv-x="1016" d="M291 330L284 282H58L65 330H155L199 642Q152 606 122 606Q104 606 97 616T92 645Q123 648 158 666T221 710H260L207 330H291ZM673 700H725L319 0H267L673 700ZM941 98H881L867 0H815L829
98H618L621 122Q690 204 730 273T789 423Q798 426 806 426Q821 426 829 417T834 392Q827 339 787 270T699 146H836L854 275H906L888 146H948L941 98Z" />
<glyph unicode="&#xbd;" glyph-name="onehalf" horiz-adv-x="962" d="M291 330L284 282H58L65 330H155L199 642Q152 606 122 606Q104 606 97 616T92 645Q123 648 158 666T221 710H260L207 330H291ZM673 700H725L319 0H267L673 700ZM928 242T896 199T818 125T696
51H888L881 1H593L600 45L627 60Q711 106 759 137T840 208T873 298Q873 337 854 358T796 379Q753 379 725 357T687 294Q649 294 649 324Q649 349 668 373T722 413T796 429Q861 429 894 392T928 295Q928 242 896 199Z" />
<glyph unicode="&#xbe;" glyph-name="threequarters" horiz-adv-x="988" d="M298 495T314 471T331 411Q331 350 285 314T159 278Q118 278 86 288T35 314T17 349Q17 378 50 383Q73 353 99 339T165 324Q219 324 247 347T275 411Q275 443 257 461T198 480Q187 480
176 479T155 478Q147 478 139 493T131 520Q131 527 138 527H197Q246 527 267 548T289 604Q289 633 270 649T212 665Q172 665 146 650T95 601Q86 601 78 608T69 627Q69 648 88 667T142 698T216 710Q272 710 307 681T343 604Q343 571 326 545T271 506Q298 495 314
471ZM645 700H697L291 0H239L645 700ZM913 98H853L839 0H787L801 98H590L593 122Q662 204 702 273T761 423Q770 426 778 426Q793 426 801 417T806 392Q799 339 759 270T671 146H808L826 275H878L860 146H920L913 98Z" />
<glyph unicode="&#xbf;" glyph-name="questiondown" horiz-adv-x="475" d="M334 552T334 517Q334 506 331 491Q327 471 315 462T280 453H272Q233 453 233 486Q233 502 235 510Q238 532 250 542T286 552H294Q334 552 334 517ZM293 323Q286 273 252 234T157 149Q107
111 84 80T61 4Q61 -43 91 -69T181 -95Q244 -95 281 -63T344 23L399 -6Q372 -74 313 -115T176 -157Q94 -157 44 -113T-7 3Q-7 45 8 77T47 132T114 189Q169 233 196 263T229 337L233 363H299L293 323Z" />
<glyph unicode="&#xc0;" glyph-name="Agrave" horiz-adv-x="620" d="M465 115T452 203H111Q71 110 32 0H-42Q39 213 123 380T314 700H389Q451 547 488 381T548 0H474Q465 115 452 203ZM443 263Q410 457 341 627Q227 461 137 263H443ZM516 893H597L675 742H613L516 893Z" />
<glyph unicode="&#xc1;" glyph-name="Aacute" horiz-adv-x="620" d="M465 115T452 203H111Q71 110 32 0H-42Q39 213 123 380T314 700H389Q451 547 488 381T548 0H474Q465 115 452 203ZM443 263Q410 457 341 627Q227 461 137 263H443ZM421 893H510L362 742H292L421 893Z" />
<glyph unicode="&#xc2;" glyph-name="Acircumflex" horiz-adv-x="620" d="M465 115T452 203H111Q71 110 32 0H-42Q39 213 123 380T314 700H389Q451 547 488 381T548 0H474Q465 115 452 203ZM443 263Q410 457 341 627Q227 461 137 263H443ZM595 875H668L761 742H699L627
825L531 742H465L595 875Z" />
<glyph unicode="&#xc3;" glyph-name="Atilde" horiz-adv-x="620" d="M465 115T452 203H111Q71 110 32 0H-42Q39 213 123 380T314 700H389Q451 547 488 381T548 0H474Q465 115 452 203ZM443 263Q410 457 341 627Q227 461 137 263H443ZM468 748T468 777Q468 812
496 830T565 848Q587 848 602 842T636 823Q653 813 662 809T684 804Q708 804 720 816T739 851Q756 851 765 843T775 820Q775 792 748 771T680 750Q657 750 641 756T606 775Q591 785 580 789T554 794Q515 794 500 748Q468 748 468 777Z" />
<glyph unicode="&#xc4;" glyph-name="Adieresis" horiz-adv-x="620" d="M465 115T452 203H111Q71 110 32 0H-42Q39 213 123 380T314 700H389Q451 547 488 381T548 0H474Q465 115 452 203ZM443 263Q410 457 341 627Q227 461 137 263H443ZM213 749T213 784L214 794L215
803Q221 848 266 848H274Q314 848 314 813L313 803L312 794Q306 749 261 749H253Q213 749 213 784ZM417 749T417 784L418 794L419 803Q425 848 470 848H478Q518 848 518 813L517 803L516 794Q510 749 465 749H457Q417 749 417 784Z" />
<glyph unicode="&#xc5;" glyph-name="Aring" horiz-adv-x="620" d="M465 115T452 203H111Q71 110 32 0H-42Q39 213 123 380T314 700H389Q451 547 488 381T548 0H474Q465 115 452 203ZM443 263Q410 457 341 627Q227 461 137 263H443ZM572 738T544 764T516 832Q516
886 552 921T641 957Q683 957 710 931T738 862Q738 806 702 772T614 738Q572 738 544 764ZM650 786T669 806T689 858Q689 882 675 895T636 909Q604 909 585 888T565 838Q565 814 579 800T619 786Q650 786 669 806Z" />
<glyph unicode="&#xc6;" glyph-name="AE" horiz-adv-x="930" d="M568 640L534 403H830L822 343H526L486 60H820Q815 24 803 12T760 0H413L442 206H124Q63 94 32 0H-42Q22 188 154 373T466 700H915L907 640H568ZM450 266L503 640H494Q402 571 316 474T160 266H450Z" />
<glyph unicode="&#xc7;" glyph-name="Ccedilla" horiz-adv-x="596" d="M440 710T493 689T576 633Q554 594 533 594Q521 594 508 603Q448 645 378 645Q296 645 236 600T144 470T112 268Q112 56 311 56Q353 56 390 69T467 112Q480 111 487 102T494 78Q489 45 438
20T321 -10L277 -55H284Q322 -55 345 -73T368 -123Q368 -173 328 -201T233 -229Q190 -229 168 -220T145 -192Q145 -185 150 -173Q191 -184 233 -184Q265 -184 284 -170T303 -133Q303 -120 292 -110T258 -100Q239 -100 217 -107L204 -75L265 -8Q155 3 96 75T37 272Q37
405 78 504T197 656T378 710Q440 710 493 689Z" />
<glyph unicode="&#xc8;" glyph-name="Egrave" horiz-adv-x="560" d="M191 640L155 388H453L445 328H147L109 60H456Q451 23 440 12T396 0H29L127 700H545L537 640H191ZM488 903H569L647 752H585L488 903Z" />
<glyph unicode="&#xc9;" glyph-name="Eacute" horiz-adv-x="560" d="M191 640L155 388H453L445 328H147L109 60H456Q451 23 440 12T396 0H29L127 700H545L537 640H191ZM393 903H482L334 752H264L393 903Z" />
<glyph unicode="&#xca;" glyph-name="Ecircumflex" horiz-adv-x="560" d="M191 640L155 388H453L445 328H147L109 60H456Q451 23 440 12T396 0H29L127 700H545L537 640H191ZM567 885H640L733 752H671L599 835L503 752H437L567 885Z" />
<glyph unicode="&#xcb;" glyph-name="Edieresis" horiz-adv-x="560" d="M191 640L155 388H453L445 328H147L109 60H456Q451 23 440 12T396 0H29L127 700H545L537 640H191ZM185 759T185 794L186 804L187 813Q193 858 238 858H246Q286 858 286 823L285 813L284 804Q278
759 233 759H225Q185 759 185 794ZM389 759T389 794L390 804L391 813Q397 858 442 858H450Q490 858 490 823L489 813L488 804Q482 759 437 759H429Q389 759 389 794Z" />
<glyph unicode="&#xcc;" glyph-name="Igrave" horiz-adv-x="350" d="M180 700H252L154 0H82L180 700ZM381 893H462L540 742H478L381 893Z" />
<glyph unicode="&#xcd;" glyph-name="Iacute" horiz-adv-x="350" d="M180 700H252L154 0H82L180 700ZM286 893H375L227 742H157L286 893Z" />
<glyph unicode="&#xce;" glyph-name="Icircumflex" horiz-adv-x="350" d="M180 700H252L154 0H82L180 700ZM460 875H533L626 742H564L492 825L396 742H330L460 875Z" />
<glyph unicode="&#xcf;" glyph-name="Idieresis" horiz-adv-x="350" d="M180 700H252L154 0H82L180 700ZM78 749T78 784L79 794L80 803Q86 848 131 848H139Q179 848 179 813L178 803L177 794Q171 749 126 749H118Q78 749 78 784ZM282 749T282 784L283 794L284
803Q290 848 335 848H343Q383 848 383 813L382 803L381 794Q375 749 330 749H322Q282 749 282 784Z" />
<glyph unicode="&#xd0;" glyph-name="Eth" horiz-adv-x="672" d="M467 700T540 627T613 419Q613 292 568 198T440 52T246 0H29L75 327H-10L-2 384H83L127 700H334Q467 700 540 627ZM384 60T461 154T539 418Q539 527 485 583T326 640H191L155 384H343L335 327H147L109
60H244Q384 60 461 154Z" />
<glyph unicode="&#xd1;" glyph-name="Ntilde" horiz-adv-x="690" d="M641 700L562 137L559 114Q550 60 550 27Q550 14 542 7T521 0H471L478 54Q479 61 479 77Q479 125 455 165L185 600L101 0H29L127 700H185Q199 700 205 696T220 680L502 224L569 700H641ZM502
748T502 777Q502 812 530 830T599 848Q621 848 636 842T670 823Q687 813 696 809T718 804Q742 804 754 816T773 851Q790 851 799 843T809 820Q809 792 782 771T714 750Q691 750 675 756T640 775Q625 785 614 789T588 794Q549 794 534 748Q502 748 502 777Z" />
<glyph unicode="&#xd2;" glyph-name="Ograve" horiz-adv-x="680" d="M211 -10T153 25T64 127T33 283Q33 412 75 508T194 657T377 710Q496 710 563 635T631 428Q631 290 591 192T474 42T289 -10Q211 -10 153 25ZM419 54T488 151T557 424Q557 531 509 588T372 646Q292
646 232 602T140 476T107 284Q107 176 156 115T294 54Q419 54 488 151ZM546 893H627L705 742H643L546 893Z" />
<glyph unicode="&#xd3;" glyph-name="Oacute" horiz-adv-x="680" d="M211 -10T153 25T64 127T33 283Q33 412 75 508T194 657T377 710Q496 710 563 635T631 428Q631 290 591 192T474 42T289 -10Q211 -10 153 25ZM419 54T488 151T557 424Q557 531 509 588T372 646Q292
646 232 602T140 476T107 284Q107 176 156 115T294 54Q419 54 488 151ZM451 893H540L392 742H322L451 893Z" />
<glyph unicode="&#xd4;" glyph-name="Ocircumflex" horiz-adv-x="680" d="M211 -10T153 25T64 127T33 283Q33 412 75 508T194 657T377 710Q496 710 563 635T631 428Q631 290 591 192T474 42T289 -10Q211 -10 153 25ZM419 54T488 151T557 424Q557 531 509 588T372
646Q292 646 232 602T140 476T107 284Q107 176 156 115T294 54Q419 54 488 151ZM625 875H698L791 742H729L657 825L561 742H495L625 875Z" />
<glyph unicode="&#xd5;" glyph-name="Otilde" horiz-adv-x="680" d="M211 -10T153 25T64 127T33 283Q33 412 75 508T194 657T377 710Q496 710 563 635T631 428Q631 290 591 192T474 42T289 -10Q211 -10 153 25ZM419 54T488 151T557 424Q557 531 509 588T372 646Q292
646 232 602T140 476T107 284Q107 176 156 115T294 54Q419 54 488 151ZM498 748T498 777Q498 812 526 830T595 848Q617 848 632 842T666 823Q683 813 692 809T714 804Q738 804 750 816T769 851Q786 851 795 843T805 820Q805 792 778 771T710 750Q687 750 671 756T636
775Q621 785 610 789T584 794Q545 794 530 748Q498 748 498 777Z" />
<glyph unicode="&#xd6;" glyph-name="Odieresis" horiz-adv-x="680" d="M211 -10T153 25T64 127T33 283Q33 412 75 508T194 657T377 710Q496 710 563 635T631 428Q631 290 591 192T474 42T289 -10Q211 -10 153 25ZM419 54T488 151T557 424Q557 531 509 588T372
646Q292 646 232 602T140 476T107 284Q107 176 156 115T294 54Q419 54 488 151ZM243 749T243 784L244 794L245 803Q251 848 296 848H304Q344 848 344 813L343 803L342 794Q336 749 291 749H283Q243 749 243 784ZM447 749T447 784L448 794L449 803Q455 848 500 848H508Q548
848 548 813L547 803L546 794Q540 749 495 749H487Q447 749 447 784Z" />
<glyph unicode="&#xd7;" glyph-name="multiply" horiz-adv-x="600" d="M68 168L246 324L112 480L157 520L291 366L469 520L508 480L330 324L464 168L419 128L285 282L107 128L68 168Z" />
<glyph unicode="&#xd8;" glyph-name="Oslash" horiz-adv-x="680" d="M584 609Q631 535 631 428Q631 290 591 192T474 42T289 -10Q182 -10 115 55L68 0H-4L80 99Q33 172 33 283Q33 412 75 508T194 657T377 710Q482 710 547 651L590 701H662L584 609ZM107 212T130
158L502 597Q455 646 372 646Q292 646 232 602T140 476T107 284Q107 212 130 158ZM557 500T533 549L161 110Q211 54 294 54Q419 54 488 151T557 424Q557 500 533 549Z" />
<glyph unicode="&#xd9;" glyph-name="Ugrave" horiz-adv-x="708" d="M177 -10T118 39T59 190Q59 214 64 251L127 700H199L135 241Q132 217 132 196Q132 122 174 87T306 52Q409 52 463 97T530 241L594 700H666L603 251Q584 117 510 54T297 -10Q177 -10 118 39ZM559
883H640L718 732H656L559 883Z" />
<glyph unicode="&#xda;" glyph-name="Uacute" horiz-adv-x="708" d="M177 -10T118 39T59 190Q59 214 64 251L127 700H199L135 241Q132 217 132 196Q132 122 174 87T306 52Q409 52 463 97T530 241L594 700H666L603 251Q584 117 510 54T297 -10Q177 -10 118 39ZM464
883H553L405 732H335L464 883Z" />
<glyph unicode="&#xdb;" glyph-name="Ucircumflex" horiz-adv-x="708" d="M177 -10T118 39T59 190Q59 214 64 251L127 700H199L135 241Q132 217 132 196Q132 122 174 87T306 52Q409 52 463 97T530 241L594 700H666L603 251Q584 117 510 54T297 -10Q177 -10 118
39ZM638 865H711L804 732H742L670 815L574 732H508L638 865Z" />
<glyph unicode="&#xdc;" glyph-name="Udieresis" horiz-adv-x="708" d="M177 -10T118 39T59 190Q59 214 64 251L127 700H199L135 241Q132 217 132 196Q132 122 174 87T306 52Q409 52 463 97T530 241L594 700H666L603 251Q584 117 510 54T297 -10Q177 -10 118 39ZM256
739T256 774L257 784L258 793Q264 838 309 838H317Q357 838 357 803L356 793L355 784Q349 739 304 739H296Q256 739 256 774ZM460 739T460 774L461 784L462 793Q468 838 513 838H521Q561 838 561 803L560 793L559 784Q553 739 508 739H500Q460 739 460 774Z" />
<glyph unicode="&#xdd;" glyph-name="Yacute" horiz-adv-x="590" d="M611 700L315 294L274 0H202L243 294L61 700H139L289 361L534 700H611ZM406 893H495L347 742H277L406 893Z" />
<glyph unicode="&#xde;" glyph-name="Thorn" horiz-adv-x="641" d="M466 598T525 545T585 400Q585 273 510 201T298 128H142L124 0H52L150 700H222L208 598H344Q466 598 525 545ZM400 188T455 244T511 400Q511 538 345 538H199L150 188H296Q400 188 455 244Z" />
<glyph unicode="&#xdf;" glyph-name="germandbls" horiz-adv-x="617" d="M470 344T498 306T526 210Q526 143 497 92T415 14T293 -14Q237 -14 191 3T144 51Q144 77 167 83Q195 60 224 51T295 42Q373 42 416 87T460 209Q460 269 427 300T329 332Q321 332 301 330L277
329Q264 329 255 346T246 377Q246 386 255 386H328Q393 386 436 429T480 549Q480 610 442 643T339 677Q266 677 223 638T168 522L95 0H27L100 522Q114 623 179 677T348 731Q406 731 451 708T521 642T546 548Q546 482 513 432T421 359Q470 344 498 306Z" />
<glyph unicode="&#xe0;" glyph-name="agrave" horiz-adv-x="558" d="M438 137Q434 110 434 87Q434 63 439 48T455 17Q444 7 430 1T403 -5Q383 -5 373 16T364 81Q329 41 279 16T169 -10Q98 -10 55 27T11 133Q11 231 110 282T399 341L403 373Q405 384 405 404Q405
454 376 479T287 504Q235 504 196 484T113 424Q105 418 97 418Q87 418 76 427T57 451Q164 560 297 560Q380 560 426 519T473 406Q473 384 471 373L438 137ZM233 46T282 76T373 160L391 286Q229 279 155 243T81 134Q81 46 182 46Q233 46 282 76ZM468 783H549L627
632H565L468 783Z" />
<glyph unicode="&#xe1;" glyph-name="aacute" horiz-adv-x="558" d="M438 137Q434 110 434 87Q434 63 439 48T455 17Q444 7 430 1T403 -5Q383 -5 373 16T364 81Q329 41 279 16T169 -10Q98 -10 55 27T11 133Q11 231 110 282T399 341L403 373Q405 384 405 404Q405
454 376 479T287 504Q235 504 196 484T113 424Q105 418 97 418Q87 418 76 427T57 451Q164 560 297 560Q380 560 426 519T473 406Q473 384 471 373L438 137ZM233 46T282 76T373 160L391 286Q229 279 155 243T81 134Q81 46 182 46Q233 46 282 76ZM373 783H462L314
632H244L373 783Z" />
<glyph unicode="&#xe2;" glyph-name="acircumflex" horiz-adv-x="558" d="M438 137Q434 110 434 87Q434 63 439 48T455 17Q444 7 430 1T403 -5Q383 -5 373 16T364 81Q329 41 279 16T169 -10Q98 -10 55 27T11 133Q11 231 110 282T399 341L403 373Q405 384 405 404Q405
454 376 479T287 504Q235 504 196 484T113 424Q105 418 97 418Q87 418 76 427T57 451Q164 560 297 560Q380 560 426 519T473 406Q473 384 471 373L438 137ZM233 46T282 76T373 160L391 286Q229 279 155 243T81 134Q81 46 182 46Q233 46 282 76ZM547 765H620L713
632H651L579 715L483 632H417L547 765Z" />
<glyph unicode="&#xe3;" glyph-name="atilde" horiz-adv-x="558" d="M438 137Q434 110 434 87Q434 63 439 48T455 17Q444 7 430 1T403 -5Q383 -5 373 16T364 81Q329 41 279 16T169 -10Q98 -10 55 27T11 133Q11 231 110 282T399 341L403 373Q405 384 405 404Q405
454 376 479T287 504Q235 504 196 484T113 424Q105 418 97 418Q87 418 76 427T57 451Q164 560 297 560Q380 560 426 519T473 406Q473 384 471 373L438 137ZM233 46T282 76T373 160L391 286Q229 279 155 243T81 134Q81 46 182 46Q233 46 282 76ZM420 638T420 667Q420
702 448 720T517 738Q539 738 554 732T588 713Q605 703 614 699T636 694Q660 694 672 706T691 741Q708 741 717 733T727 710Q727 682 700 661T632 640Q609 640 593 646T558 665Q543 675 532 679T506 684Q467 684 452 638Q420 638 420 667Z" />
<glyph unicode="&#xe4;" glyph-name="adieresis" horiz-adv-x="558" d="M438 137Q434 110 434 87Q434 63 439 48T455 17Q444 7 430 1T403 -5Q383 -5 373 16T364 81Q329 41 279 16T169 -10Q98 -10 55 27T11 133Q11 231 110 282T399 341L403 373Q405 384 405 404Q405
454 376 479T287 504Q235 504 196 484T113 424Q105 418 97 418Q87 418 76 427T57 451Q164 560 297 560Q380 560 426 519T473 406Q473 384 471 373L438 137ZM233 46T282 76T373 160L391 286Q229 279 155 243T81 134Q81 46 182 46Q233 46 282 76ZM165 639T165 674L166
684L167 693Q173 738 218 738H226Q266 738 266 703L265 693L264 684Q258 639 213 639H205Q165 639 165 674ZM369 639T369 674L370 684L371 693Q377 738 422 738H430Q470 738 470 703L469 693L468 684Q462 639 417 639H409Q369 639 369 674Z" />
<glyph unicode="&#xe5;" glyph-name="aring" horiz-adv-x="558" d="M438 137Q434 110 434 87Q434 63 439 48T455 17Q444 7 430 1T403 -5Q383 -5 373 16T364 81Q329 41 279 16T169 -10Q98 -10 55 27T11 133Q11 231 110 282T399 341L403 373Q405 384 405 404Q405
454 376 479T287 504Q235 504 196 484T113 424Q105 418 97 418Q87 418 76 427T57 451Q164 560 297 560Q380 560 426 519T473 406Q473 384 471 373L438 137ZM233 46T282 76T373 160L391 286Q229 279 155 243T81 134Q81 46 182 46Q233 46 282 76ZM524 628T496 654T468
722Q468 776 504 811T593 847Q635 847 662 821T690 752Q690 696 654 662T566 628Q524 628 496 654ZM602 676T621 696T641 748Q641 772 627 785T588 799Q556 799 537 778T517 728Q517 704 531 690T571 676Q602 676 621 696Z" />
<glyph unicode="&#xe6;" glyph-name="ae" horiz-adv-x="913" d="M458 268Q455 240 455 210Q455 129 491 88T597 46Q651 46 690 67T764 134Q775 148 786 148Q799 148 828 128Q799 62 738 25T589 -12Q523 -12 477 13T406 91Q360 39 304 14T172 -12Q126 -12 89 6T32
57T11 131Q11 209 60 250T191 306T396 322Q405 390 405 404Q405 454 376 479T287 504Q232 504 190 486T111 434Q105 428 95 428Q77 428 57 465Q159 560 292 560Q357 560 401 535T463 464Q499 510 551 535T668 560Q769 560 815 509T862 355Q862 318 850 268H458ZM581
506T533 456T467 322H794Q797 345 797 364Q797 430 764 468T658 506Q581 506 533 456ZM254 44T303 72T388 156Q384 177 384 207Q384 238 387 266Q290 266 226 258T122 221T82 137Q82 98 109 71T180 44Q254 44 303 72Z" />
<glyph unicode="&#xe7;" glyph-name="ccedilla" horiz-adv-x="547" d="M234 506T187 472T114 376T88 232Q88 148 132 97T248 46Q307 46 346 71T419 157Q436 157 445 148T455 121Q455 85 429 56T357 9T256 -10L212 -55H219Q257 -55 280 -73T303 -123Q303 -173 263
-201T168 -229Q125 -229 103 -220T80 -192Q80 -185 85 -173Q126 -184 168 -184Q200 -184 219 -170T238 -133Q238 -120 227 -110T193 -100Q174 -100 152 -107L139 -75L201 -6Q115 8 66 69T17 227Q17 325 52 401T153 518T302 560Q396 560 449 513T500 387Q489 382
476 379T453 375Q445 375 439 382T433 404Q433 453 397 479T295 506Q234 506 187 472Z" />
<glyph unicode="&#xe8;" glyph-name="egrave" horiz-adv-x="560" d="M99 268Q97 238 97 222Q97 139 137 94T249 48Q311 48 350 67T416 132Q424 146 438 146Q453 146 480 126Q450 60 390 25T246 -10Q144 -10 85 51T26 219Q26 380 100 470T306 560Q403 560 454 510T506
365Q506 318 498 268H99ZM223 506T173 459T106 322H438Q441 342 441 369Q441 437 406 471T301 506Q223 506 173 459ZM477 783H558L636 632H574L477 783Z" />
<glyph unicode="&#xe9;" glyph-name="eacute" horiz-adv-x="560" d="M99 268Q97 238 97 222Q97 139 137 94T249 48Q311 48 350 67T416 132Q424 146 438 146Q453 146 480 126Q450 60 390 25T246 -10Q144 -10 85 51T26 219Q26 380 100 470T306 560Q403 560 454 510T506
365Q506 318 498 268H99ZM223 506T173 459T106 322H438Q441 342 441 369Q441 437 406 471T301 506Q223 506 173 459ZM382 783H471L323 632H253L382 783Z" />
<glyph unicode="&#xea;" glyph-name="ecircumflex" horiz-adv-x="560" d="M99 268Q97 238 97 222Q97 139 137 94T249 48Q311 48 350 67T416 132Q424 146 438 146Q453 146 480 126Q450 60 390 25T246 -10Q144 -10 85 51T26 219Q26 380 100 470T306 560Q403 560
454 510T506 365Q506 318 498 268H99ZM223 506T173 459T106 322H438Q441 342 441 369Q441 437 406 471T301 506Q223 506 173 459ZM556 765H629L722 632H660L588 715L492 632H426L556 765Z" />
<glyph unicode="&#xeb;" glyph-name="edieresis" horiz-adv-x="560" d="M99 268Q97 238 97 222Q97 139 137 94T249 48Q311 48 350 67T416 132Q424 146 438 146Q453 146 480 126Q450 60 390 25T246 -10Q144 -10 85 51T26 219Q26 380 100 470T306 560Q403 560 454
510T506 365Q506 318 498 268H99ZM223 506T173 459T106 322H438Q441 342 441 369Q441 437 406 471T301 506Q223 506 173 459ZM174 639T174 674L175 684L176 693Q182 738 227 738H235Q275 738 275 703L274 693L273 684Q267 639 222 639H214Q174 639 174 674ZM378
639T378 674L379 684L380 693Q386 738 431 738H439Q479 738 479 703L478 693L477 684Q471 639 426 639H418Q378 639 378 674Z" />
<glyph unicode="&#xec;" glyph-name="igrave" horiz-adv-x="288" d="M130 550H198L121 0H53L130 550ZM335 783H416L494 632H432L335 783Z" />
<glyph unicode="&#xed;" glyph-name="iacute" horiz-adv-x="288" d="M130 550H198L121 0H53L130 550ZM240 783H329L181 632H111L240 783Z" />
<glyph unicode="&#xee;" glyph-name="icircumflex" horiz-adv-x="288" d="M130 550H198L121 0H53L130 550ZM414 765H487L580 632H518L446 715L350 632H284L414 765Z" />
<glyph unicode="&#xef;" glyph-name="idieresis" horiz-adv-x="288" d="M130 550H198L121 0H53L130 550ZM32 639T32 674L33 684L34 693Q40 738 85 738H93Q133 738 133 703L132 693L131 684Q125 639 80 639H72Q32 639 32 674ZM236 639T236 674L237 684L238 693Q244
738 289 738H297Q337 738 337 703L336 693L335 684Q329 639 284 639H276Q236 639 236 674Z" />
<glyph unicode="&#xf0;" glyph-name="eth" horiz-adv-x="547" d="M496 547T496 357Q496 180 435 84T235 -12Q162 -12 113 19T40 103T16 217Q16 316 46 393T138 515T293 560Q356 560 395 534Q371 601 327 654L221 595L192 646L284 697Q251 727 220 747L272 794Q311
765 345 731L460 795L488 743L385 686Q496 547 496 357ZM332 42T377 123T423 334Q423 413 391 459T288 506Q183 506 134 427T85 217Q85 136 123 89T233 42Q332 42 377 123Z" />
<glyph unicode="&#xf1;" glyph-name="ntilde" horiz-adv-x="610" d="M519 560T519 420Q519 406 515 372L481 128Q470 58 470 33Q470 19 473 7Q448 -5 419 -5Q410 -5 406 2T402 27Q402 54 409 102L447 373Q450 396 450 413Q450 462 428 484T356 506Q266 506 160
417L101 0H33L84 363Q98 466 98 518Q98 534 97 539Q130 554 150 554Q173 554 173 517Q173 512 171 496L170 487Q220 525 269 542T370 560Q519 560 519 420ZM448 638T448 667Q448 702 476 720T545 738Q567 738 582 732T616 713Q633 703 642 699T664 694Q688 694
700 706T719 741Q736 741 745 733T755 710Q755 682 728 661T660 640Q637 640 621 646T586 665Q571 675 560 679T534 684Q495 684 480 638Q448 638 448 667Z" />
<glyph unicode="&#xf2;" glyph-name="ograve" horiz-adv-x="548" d="M15 -10T15 200Q15 312 48 393T145 517T295 560Q495 560 495 353Q495 240 462 159T365 34T215 -10Q15 -10 15 200ZM319 46T372 125T425 350Q425 428 391 466T288 504Q192 504 139 425T85 202Q85
122 119 84T223 46Q319 46 372 125ZM465 783H546L624 632H562L465 783Z" />
<glyph unicode="&#xf3;" glyph-name="oacute" horiz-adv-x="548" d="M15 -10T15 200Q15 312 48 393T145 517T295 560Q495 560 495 353Q495 240 462 159T365 34T215 -10Q15 -10 15 200ZM319 46T372 125T425 350Q425 428 391 466T288 504Q192 504 139 425T85 202Q85
122 119 84T223 46Q319 46 372 125ZM370 783H459L311 632H241L370 783Z" />
<glyph unicode="&#xf4;" glyph-name="ocircumflex" horiz-adv-x="548" d="M15 -10T15 200Q15 312 48 393T145 517T295 560Q495 560 495 353Q495 240 462 159T365 34T215 -10Q15 -10 15 200ZM319 46T372 125T425 350Q425 428 391 466T288 504Q192 504 139 425T85
202Q85 122 119 84T223 46Q319 46 372 125ZM544 765H617L710 632H648L576 715L480 632H414L544 765Z" />
<glyph unicode="&#xf5;" glyph-name="otilde" horiz-adv-x="548" d="M15 -10T15 200Q15 312 48 393T145 517T295 560Q495 560 495 353Q495 240 462 159T365 34T215 -10Q15 -10 15 200ZM319 46T372 125T425 350Q425 428 391 466T288 504Q192 504 139 425T85 202Q85
122 119 84T223 46Q319 46 372 125ZM417 638T417 667Q417 702 445 720T514 738Q536 738 551 732T585 713Q602 703 611 699T633 694Q657 694 669 706T688 741Q705 741 714 733T724 710Q724 682 697 661T629 640Q606 640 590 646T555 665Q540 675 529 679T503 684Q464
684 449 638Q417 638 417 667Z" />
<glyph unicode="&#xf6;" glyph-name="odieresis" horiz-adv-x="548" d="M15 -10T15 200Q15 312 48 393T145 517T295 560Q495 560 495 353Q495 240 462 159T365 34T215 -10Q15 -10 15 200ZM319 46T372 125T425 350Q425 428 391 466T288 504Q192 504 139 425T85
202Q85 122 119 84T223 46Q319 46 372 125ZM162 639T162 674L163 684L164 693Q170 738 215 738H223Q263 738 263 703L262 693L261 684Q255 639 210 639H202Q162 639 162 674ZM366 639T366 674L367 684L368 693Q374 738 419 738H427Q467 738 467 703L466 693L465
684Q459 639 414 639H406Q366 639 366 674Z" />
<glyph unicode="&#xf7;" glyph-name="divide" horiz-adv-x="600" d="M279 474T266 487T253 520Q253 542 272 560T313 579Q333 579 346 566T360 533Q360 510 341 492T298 474Q279 474 266 487ZM62 354H522L514 294H54L62 354ZM223 73T210 86T196 119Q196 142 215
160T257 179Q277 179 290 166T303 132Q303 110 285 92T242 73Q223 73 210 86Z" />
<glyph unicode="&#xf8;" glyph-name="oslash" horiz-adv-x="548" d="M469 475Q495 426 495 353Q495 240 462 159T365 34T215 -10Q121 -10 71 37L37 0H-27L41 75Q15 125 15 200Q15 312 48 393T145 517T295 560Q390 560 440 513L474 550H538L469 475ZM85 162T94
132L394 463Q362 504 288 504Q192 504 139 425T85 202Q85 162 94 132ZM425 387T417 417L116 87Q150 46 223 46Q319 46 372 125T425 350Q425 387 417 417Z" />
<glyph unicode="&#xf9;" glyph-name="ugrave" horiz-adv-x="609" d="M476 113Q471 76 471 54Q471 32 476 7Q452 -5 431 -5Q413 -5 407 4T400 41Q400 60 401 72Q369 32 322 11T220 -10Q141 -10 98 30T55 143Q55 161 58 182L110 550H178L126 182Q123 163 123 147Q123
44 230 44Q281 44 327 69T411 144L468 550H537L476 113ZM494 783H575L653 632H591L494 783Z" />
<glyph unicode="&#xfa;" glyph-name="uacute" horiz-adv-x="609" d="M476 113Q471 76 471 54Q471 32 476 7Q452 -5 431 -5Q413 -5 407 4T400 41Q400 60 401 72Q369 32 322 11T220 -10Q141 -10 98 30T55 143Q55 161 58 182L110 550H178L126 182Q123 163 123 147Q123
44 230 44Q281 44 327 69T411 144L468 550H537L476 113ZM401 783H490L342 632H272L401 783Z" />
<glyph unicode="&#xfb;" glyph-name="ucircumflex" horiz-adv-x="609" d="M476 113Q471 76 471 54Q471 32 476 7Q452 -5 431 -5Q413 -5 407 4T400 41Q400 60 401 72Q369 32 322 11T220 -10Q141 -10 98 30T55 143Q55 161 58 182L110 550H178L126 182Q123 163 123
147Q123 44 230 44Q281 44 327 69T411 144L468 550H537L476 113ZM575 765H648L741 632H679L607 715L511 632H445L575 765Z" />
<glyph unicode="&#xfc;" glyph-name="udieresis" horiz-adv-x="609" d="M476 113Q471 76 471 54Q471 32 476 7Q452 -5 431 -5Q413 -5 407 4T400 41Q400 60 401 72Q369 32 322 11T220 -10Q141 -10 98 30T55 143Q55 161 58 182L110 550H178L126 182Q123 163 123
147Q123 44 230 44Q281 44 327 69T411 144L468 550H537L476 113ZM193 639T193 674L194 684L195 693Q201 738 246 738H254Q294 738 294 703L293 693L292 684Q286 639 241 639H233Q193 639 193 674ZM397 639T397 674L398 684L399 693Q405 738 450 738H458Q498 738
498 703L497 693L496 684Q490 639 445 639H437Q397 639 397 674Z" />
<glyph unicode="&#xfd;" glyph-name="yacute" horiz-adv-x="485" d="M494 550L198 -42Q157 -124 112 -159T4 -194Q-33 -194 -54 -183T-76 -151Q-76 -132 -56 -120Q-46 -127 -27 -132T12 -137Q93 -137 154 9L34 550H104L201 107L420 550H494ZM339 783H428L280 632H210L339
783Z" />
<glyph unicode="&#xfe;" glyph-name="thorn" horiz-adv-x="609" d="M437 560T491 511T546 353Q546 325 541 285Q528 192 487 125T383 23T246 -12Q164 -12 107 14L74 -220H4L146 791H216L175 499Q248 560 344 560Q437 560 491 511ZM474 325T474 352Q474 431 440
467T337 504Q244 504 165 430L115 73Q142 59 178 52T254 44Q338 44 395 106T469 285Q474 325 474 352Z" />
<glyph unicode="&#xff;" glyph-name="ydieresis" horiz-adv-x="485" d="M494 550L198 -42Q157 -124 112 -159T4 -194Q-33 -194 -54 -183T-76 -151Q-76 -132 -56 -120Q-46 -127 -27 -132T12 -137Q93 -137 154 9L34 550H104L201 107L420 550H494ZM131 639T131 674L132
684L133 693Q139 738 184 738H192Q232 738 232 703L231 693L230 684Q224 639 179 639H171Q131 639 131 674ZM335 639T335 674L336 684L337 693Q343 738 388 738H396Q436 738 436 703L435 693L434 684Q428 639 383 639H375Q335 639 335 674Z" />
<glyph unicode="&#x2013;" glyph-name="endash" horiz-adv-x="623" d="M40 337H563L555 277H32L40 337Z" />
<glyph unicode="&#x2014;" glyph-name="emdash" horiz-adv-x="1100" d="M40 337H1040L1032 277H32L40 337Z" />
<glyph unicode="&#x2018;" glyph-name="quoteleft" horiz-adv-x="243" d="M286 625T295 616T305 590L304 581L303 570Q300 550 287 538T254 526H242Q225 526 215 536T204 564L205 573L207 584Q211 619 227 654T267 718Q299 758 317 758Q332 758 344 748Q312 715
293 687T264 625H269Q286 625 295 616Z" />
<glyph unicode="&#x2019;" glyph-name="quoteright" horiz-adv-x="243" d="M205 758T215 748T226 720L225 711L223 700Q219 665 203 630T163 566Q131 526 113 526Q98 526 86 536Q118 569 137 597T166 659H161Q144 659 135 668T125 694L126 703L127 714Q130 734
143 746T176 758H188Q205 758 215 748Z" />
<glyph unicode="&#x201a;" glyph-name="quotesinglbase" horiz-adv-x="250" d="M112 99T122 89T133 61L132 52L130 41Q126 6 110 -29T70 -93Q38 -133 20 -133Q5 -133 -7 -123Q25 -90 44 -62T73 0H68Q51 0 42 9T32 35L33 44L34 55Q37 75 50 87T83 99H95Q112 99 122 89Z" />
<glyph unicode="&#x201c;" glyph-name="quotedblleft" horiz-adv-x="400" d="M332 758T344 748Q312 715 293 687T264 625H269Q286 625 295 616T305 590L304 581L303 570Q300 550 287 538T254 526H242Q225 526 215 536T204 564L205 573L207 584Q211 619 227 654T267
718Q299 758 317 758Q332 758 344 748ZM436 625T445 616T455 590L454 581L453 570Q450 550 437 538T404 526H392Q375 526 365 536T354 564L355 573L357 584Q361 619 377 654T417 718Q449 758 467 758Q482 758 494 748Q462 715 443 687T414 625H419Q436 625 445
616Z" />
<glyph unicode="&#x201d;" glyph-name="quotedblright" horiz-adv-x="400" d="M355 758T365 748T376 720L375 711L373 700Q369 665 353 630T313 566Q281 526 263 526Q248 526 236 536Q268 569 287 597T316 659H311Q294 659 285 668T275 694L276 703L277 714Q280
734 293 746T326 758H338Q355 758 365 748ZM205 758T215 748T226 720L225 711L223 700Q219 665 203 630T163 566Q131 526 113 526Q98 526 86 536Q118 569 137 597T166 659H161Q144 659 135 668T125 694L126 703L127 714Q130 734 143 746T176 758H188Q205 758 215
748Z" />
<glyph unicode="&#x201e;" glyph-name="quotedblbase" horiz-adv-x="400" d="M262 99T272 89T283 61L282 52L280 41Q276 6 260 -29T220 -93Q188 -133 170 -133Q155 -133 143 -123Q175 -90 194 -62T223 0H218Q201 0 192 9T182 35L183 44L184 55Q187 75 200 87T233
99H245Q262 99 272 89ZM112 99T122 89T133 61L132 52L130 41Q126 6 110 -29T70 -93Q38 -133 20 -133Q5 -133 -7 -123Q25 -90 44 -62T73 0H68Q51 0 42 9T32 35L33 44L34 55Q37 75 50 87T83 99H95Q112 99 122 89Z" />
<glyph unicode="&#x2022;" glyph-name="bullet" horiz-adv-x="560" d="M179 197T137 238T94 347Q94 406 121 454T196 529T301 557Q372 557 415 515T458 405Q458 347 430 299T354 224T250 197Q179 197 137 238Z" />
<glyph unicode="&#x2039;" glyph-name="guilsinglleft" horiz-adv-x="340" d="M53 288L204 452H266L124 288L219 117H157L53 288Z" />
<glyph unicode="&#x203a;" glyph-name="guilsinglright" horiz-adv-x="340" d="M287 281L136 117H74L216 281L121 452H183L287 281Z" />
</font>
</defs>
</svg>
