<?xml version="1.0" standalone="no"?>
<!DOCTYPE svg PUBLIC "-//W3C//DTD SVG 1.1//EN" "http://www.w3.org/Graphics/SVG/1.1/DTD/svg11.dtd">
<svg xmlns="http://www.w3.org/2000/svg">
<defs >
<font id="Krub" horiz-adv-x="566" ><font-face
    font-family="Krub SemiBold"
    units-per-em="1000"
    panose-1="0 0 7 0 0 0 0 0 0 0"
    ascent="1007"
    descent="-293"
    alphabetic="0" />
<glyph unicode=" " glyph-name="space" horiz-adv-x="258" />
<glyph unicode="!" glyph-name="exclam" horiz-adv-x="246" d="M94 700H234L138 219H55L94 700ZM1 -4T1 48Q1 58 2 63L3 76Q13 143 80 143H92Q150 143 150 93Q150 82 149 76L148 63Q139 -4 71 -4H59Q1 -4 1 48Z" />
<glyph unicode="&quot;" glyph-name="quotedbl" horiz-adv-x="324" d="M75 737H186L137 505H59L75 737ZM230 737H341L293 505H215L230 737Z" />
<glyph unicode="#" glyph-name="numbersign" horiz-adv-x="540" d="M429 420L386 278H471L460 202H364L303 0H224L285 202H161L100 0H21L82 202H-4L7 278H104L147 420H53L63 496H170L231 700H310L249 496H373L434 700H513L452 496H527L517 420H429ZM350 420H226L183
278H307L350 420Z" />
<glyph unicode="$" glyph-name="dollar" horiz-adv-x="609" d="M424 386T468 361T531 304T550 227Q550 123 479 60T282 -9L267 -120H205L221 -9Q121 -2 62 36T2 131Q2 171 28 192T105 214Q106 157 139 124T234 85L266 318Q156 354 111 398T66 515Q66 572 98 615T187
684T321 710L335 809H397L383 707Q463 696 515 656T582 552Q565 535 544 524T507 512Q492 512 484 518T463 542Q435 594 369 611L342 414Q424 386 468 361ZM196 495T214 475T283 435L308 617Q255 615 226 592T196 529Q196 495 214 475ZM354 94T385 123T416 200Q416
235 397 256T326 298L296 86Q354 94 385 123Z" />
<glyph unicode="%" glyph-name="percent" horiz-adv-x="960" d="M670 710H785L280 -10H165L670 710ZM160 335T120 374T80 483Q80 542 105 592T175 671T277 700Q347 700 386 661T425 553Q425 491 402 442T335 364T229 335Q160 335 120 374ZM285 407T306 450T328
554Q328 591 314 609T268 628Q222 628 201 586T179 483Q179 446 194 427T239 407Q285 407 306 450ZM595 -7T556 32T516 140Q516 202 539 251T607 329T711 358Q781 358 820 319T860 210Q860 149 837 100T769 22T664 -7Q595 -7 556 32ZM720 65T741 107T762 212Q762
249 748 267T703 286Q657 286 636 244T614 141Q614 65 674 65Q720 65 741 107Z" />
<glyph unicode="&amp;" glyph-name="ampersand" horiz-adv-x="687" d="M527 95T548 91T598 85L593 45Q589 19 570 5T516 -10Q455 -10 402 31Q320 -10 220 -10Q117 -10 58 35T-2 160Q-2 214 19 251T75 316T168 375Q133 460 133 522Q133 575 159 618T232 685T332
710Q398 710 441 677T484 582Q484 533 459 494T394 426T291 360Q320 311 355 261T424 175Q453 215 470 263T491 361Q535 361 559 343T583 290Q583 249 563 200T503 109Q527 95 548 91ZM285 630T261 600T236 522Q236 479 259 424Q322 459 354 493T387 576Q387 601
372 615T326 630Q285 630 261 600ZM119 124T149 97T231 69Q288 69 338 97Q257 200 201 306Q159 278 139 248T119 170Q119 124 149 97Z" />
<glyph unicode="&apos;" glyph-name="quotesingle" horiz-adv-x="223" d="M102 737H213L164 505H87L102 737Z" />
<glyph unicode="(" glyph-name="parenleft" horiz-adv-x="390" d="M60 55T60 258Q60 426 120 582T291 861H385Q183 554 183 238Q183 61 250 -103H156Q60 55 60 258Z" />
<glyph unicode=")" glyph-name="parenright" horiz-adv-x="390" d="M330 703T330 500Q330 332 270 176T99 -103H5Q207 204 207 520Q207 697 140 861H234Q330 703 330 500Z" />
<glyph unicode="*" glyph-name="asterisk" horiz-adv-x="618" d="M166 563L304 694L140 732L182 818L326 747L334 927H430L391 747L554 820L571 736L398 694L498 568L413 513L347 663L237 513L166 563Z" />
<glyph unicode="+" glyph-name="plus" horiz-adv-x="600" d="M245 287H33L43 361H255L285 578H363L332 361H543L533 287H322L292 70H214L245 287Z" />
<glyph unicode="," glyph-name="comma" horiz-adv-x="308" d="M152 143T166 129T181 88Q181 68 178 47Q171 9 154 -24T106 -94Q86 -119 72 -129T42 -140Q20 -140 2 -124Q44 -82 63 -59T92 -4H88Q62 -4 47 10T32 48Q32 68 37 90Q42 118 58 130T105 143H125Q152
143 166 129Z" />
<glyph unicode="-" glyph-name="hyphen" horiz-adv-x="480" d="M51 344H411L401 270H41L51 344Z" />
<glyph unicode="." glyph-name="period" horiz-adv-x="309" d="M32 -4T32 48Q32 58 33 63L35 76Q44 143 112 143H124Q182 143 182 91Q182 81 181 76L179 63Q170 -4 103 -4H91Q32 -4 32 48Z" />
<glyph unicode="/" glyph-name="slash" horiz-adv-x="334" d="M324 811H414L2 -55H-88L324 811Z" />
<glyph unicode="0" glyph-name="zero" horiz-adv-x="620" d="M136 -12T78 54T20 245Q20 292 27 338Q52 517 134 613T352 710Q466 710 523 641T581 442Q581 397 573 338Q549 170 468 79T251 -12Q136 -12 78 54ZM345 77T389 145T452 338Q461 400 461 451Q461 534
432 577T340 621Q257 621 212 548T148 338Q140 280 140 239Q140 77 263 77Q345 77 389 145Z" />
<glyph unicode="1" glyph-name="one" horiz-adv-x="459" d="M363 82L352 0H-6L5 82H127L193 550Q141 515 101 515Q76 515 62 530T47 574Q47 586 51 612Q110 614 166 636T261 700H333L246 82H363Z" />
<glyph unicode="2" glyph-name="two" horiz-adv-x="537" d="M517 433T470 359T347 221T165 86H446L434 0H-5L3 63L21 76Q153 172 227 233T349 365T398 512Q398 615 300 615Q242 615 203 577T148 463Q101 463 81 478T60 524Q60 574 95 614T187 677T306 700Q402
700 459 652T517 516Q517 433 470 359Z" />
<glyph unicode="3" glyph-name="three" horiz-adv-x="549" d="M418 339T446 306T475 218Q475 144 439 93T341 17T201 -9Q104 -9 45 17T-14 86Q-14 109 -2 124T31 142Q100 76 207 76Q275 76 316 113T357 214Q357 261 328 286T253 312Q234 312 219 309Q199 307 192
307Q175 307 162 330T149 374Q149 384 152 388T166 392H252Q315 392 349 429T383 527Q383 567 359 591T284 615Q230 615 193 588T134 511Q102 511 81 526T59 567Q59 603 91 633T177 682T291 700Q355 700 402 679T476 618T502 530Q502 464 468 417T375 352Q418 339
446 306Z" />
<glyph unicode="4" glyph-name="four" horiz-adv-x="522" d="M281 146H-13L-5 202Q109 333 174 449T269 700Q289 702 296 702Q335 702 356 685T377 634Q377 578 334 501T228 351T113 232H293L316 399H434L410 232H484L472 146H398L378 0H261L281 146Z" />
<glyph unicode="5" glyph-name="five" horiz-adv-x="556" d="M214 615L178 437Q227 466 293 466Q385 466 439 414T493 271Q493 188 458 125T360 26T213 -9Q147 -9 103 10T37 59T15 119Q15 183 89 186Q108 77 218 77Q294 77 333 130T373 268Q373 380 264 380Q221
380 189 362T129 307L48 320L125 700H517L505 615H214Z" />
<glyph unicode="6" glyph-name="six" horiz-adv-x="577" d="M364 449T408 427T477 360T503 252Q503 131 434 62T239 -7Q173 -7 122 22T43 103T15 222Q15 337 65 449T200 633T388 705Q430 705 450 686T470 622Q362 622 283 563T164 404Q233 449 309 449Q364 449
408 427ZM312 79T348 126T385 248Q385 305 358 334T282 363Q245 363 208 350T139 312Q132 273 132 227Q132 160 159 120T245 79Q312 79 348 126Z" />
<glyph unicode="7" glyph-name="seven" horiz-adv-x="482" d="M510 700L502 639Q372 479 310 351T217 72L203 0H145Q84 0 84 48Q84 62 86 71L90 92Q113 217 194 360T389 609H118Q62 609 62 653Q62 663 65 677T73 700H510Z" />
<glyph unicode="8" glyph-name="eight" horiz-adv-x="564" d="M497 305T497 205Q497 96 424 44T223 -9Q120 -9 62 36T4 160Q4 238 42 284T157 361Q113 390 90 425T67 506Q67 567 100 612T191 681T324 705Q386 705 432 683T503 623T528 537Q528 469 495 428T398
357Q497 305 497 205ZM256 621T221 591T186 511Q186 476 209 448T278 400Q343 421 376 453T410 538Q410 575 384 598T312 621Q256 621 221 591ZM302 76T340 108T378 200Q378 231 354 255T264 308Q188 278 156 245T124 163Q124 121 152 99T235 76Q302 76 340 108Z"
/>
<glyph unicode="9" glyph-name="nine" horiz-adv-x="577" d="M428 703T481 647T534 491Q534 367 479 252T329 65T122 -7Q87 -7 71 8T55 53Q55 58 57 76Q167 76 249 133T375 288Q309 248 238 248Q151 248 97 296T43 439Q43 519 80 578T180 670T322 703Q428 703
481 647ZM343 334T405 383Q417 439 417 499Q417 558 392 588T308 618Q238 618 200 570T161 447Q161 334 270 334Q343 334 405 383Z" />
<glyph unicode=":" glyph-name="colon" horiz-adv-x="324" d="M83 358T83 410Q83 420 84 425L86 438Q95 505 163 505H175Q233 505 233 453Q233 443 232 438L230 425Q221 358 154 358H142Q83 358 83 410ZM32 -4T32 48Q32 58 33 63L35 76Q44 143 112 143H124Q182
143 182 91Q182 81 181 76L179 63Q170 -4 103 -4H91Q32 -4 32 48Z" />
<glyph unicode=";" glyph-name="semicolon" horiz-adv-x="324" d="M152 143T166 129T181 88Q181 68 178 47Q171 9 154 -24T106 -94Q86 -119 72 -129T42 -140Q20 -140 2 -124Q44 -82 63 -59T92 -4H88Q62 -4 47 10T32 48Q32 68 37 90Q42 118 58 130T105 143H125Q152
143 166 129ZM83 358T83 410Q83 420 84 425L86 438Q95 505 163 505H175Q233 505 233 453Q233 443 232 438L230 425Q221 358 154 358H142Q83 358 83 410Z" />
<glyph unicode="&lt;" glyph-name="less" horiz-adv-x="600" d="M608 -7L71 259L58 349L521 613L535 511L168 304L594 95L608 -7Z" />
<glyph unicode="=" glyph-name="equal" horiz-adv-x="600" d="M79 472H539L528 396H68L79 472ZM50 268H510L500 192H40L50 268Z" />
<glyph unicode="&gt;" glyph-name="greater" horiz-adv-x="600" d="M542 349L529 259L-8 -7L6 95L432 304L65 511L79 613L542 349Z" />
<glyph unicode="?" glyph-name="question" horiz-adv-x="475" d="M142 242Q150 298 180 335T265 416Q311 452 331 478T352 546Q352 620 267 620Q218 620 190 592T147 516L45 545Q63 617 126 663T282 709Q368 709 420 665T473 548Q473 501 458 469T417 415T346
360Q301 328 278 301T247 231L243 209H137L142 242ZM98 -4T98 48Q98 63 101 78Q110 143 177 143H189Q247 143 247 92Q247 82 245 62Q236 -4 168 -4H156Q98 -4 98 48Z" />
<glyph unicode="@" glyph-name="at" horiz-adv-x="834" d="M545 280Q544 276 539 261T533 233Q533 207 565 207Q609 207 644 243T700 334T720 443Q720 541 653 598T468 656Q365 656 284 608T158 476T113 289Q113 170 186 106T393 41Q462 41 509 56T601 99Q613
93 619 83T624 59Q621 39 587 21T499 -8T385 -20Q225 -20 135 57T45 279Q45 400 103 500T260 659T475 717Q571 717 641 683T749 587T787 446Q787 370 756 300T671 187T551 143Q517 143 495 160T467 205Q420 143 345 143Q287 143 253 177T218 274Q218 341 246 402T324
501T436 539Q500 539 525 493L534 523H615L545 280ZM403 215T431 242T475 312T491 396Q491 431 476 449T433 467Q396 467 369 440T326 370T311 285Q311 215 367 215Q403 215 431 242Z" />
<glyph unicode="A" glyph-name="A" horiz-adv-x="647" d="M447 107T440 183H142Q115 108 83 0H-42Q15 206 99 377T301 700H429Q500 538 536 365T575 0H450Q447 107 440 183ZM430 276Q407 453 350 600Q245 447 177 276H430Z" />
<glyph unicode="B" glyph-name="B" horiz-adv-x="622" d="M505 342T531 304T558 216Q558 113 487 57T286 0H22L120 700H357Q454 700 512 654T570 529Q570 468 540 422T462 359Q505 342 531 304ZM441 570T413 589T324 609H234L205 402H300Q372 402 406 432T441
527Q441 570 413 589ZM357 91T393 120T430 223Q430 270 399 291T297 312H193L162 91H268Q357 91 393 120Z" />
<glyph unicode="C" glyph-name="C" horiz-adv-x="623" d="M183 -10T111 66T38 282Q38 414 80 510T203 658T394 710Q460 710 516 688T610 626Q600 600 580 578T545 555Q532 555 517 566Q478 593 450 604T389 615Q321 615 271 575T195 459T168 281Q168 85 328 85Q376
85 412 98T484 141Q503 140 515 127T527 93Q527 67 498 43T419 5T316 -10Q183 -10 111 66Z" />
<glyph unicode="D" glyph-name="D" horiz-adv-x="679" d="M426 700T493 666T596 566T632 413Q632 290 585 197T452 52T253 0H16L114 700H334Q426 700 493 666ZM323 91T382 129T473 239T505 409Q505 506 456 557T315 609H227L155 91H242Q323 91 382 129Z" />
<glyph unicode="E" glyph-name="E" horiz-adv-x="560" d="M228 609L199 405H456L443 315H187L155 91H467Q460 38 447 19T403 0H16L114 700H545L532 609H228Z" />
<glyph unicode="F" glyph-name="F" horiz-adv-x="530" d="M228 609L199 404H454L442 313H186L142 0H16L114 700H539L526 609H228Z" />
<glyph unicode="G" glyph-name="G" horiz-adv-x="679" d="M354 365T357 380H620L577 73Q528 31 468 11T331 -10Q242 -10 176 25T75 125T40 280Q40 413 85 510T214 658T413 710Q487 710 553 687T652 626Q638 598 617 577T583 555Q575 555 570 557T555 565Q489 616
406 616Q295 616 233 528T171 280Q171 185 212 135T333 84Q373 84 405 92T458 116L482 289H394Q373 289 364 301T354 339Q354 365 357 380Z" />
<glyph unicode="H" glyph-name="H" horiz-adv-x="693" d="M662 700L564 0H437L480 310H185L142 0H16L114 700H240L198 403H493L535 700H662Z" />
<glyph unicode="I" glyph-name="I" horiz-adv-x="350" d="M153 700H279L181 0H55L153 700Z" />
<glyph unicode="J" glyph-name="J" horiz-adv-x="440" d="M62 -10T20 -2T-38 17Q-27 99 8 99Q19 99 37 94Q69 84 104 84Q151 84 179 111T214 190L285 700H412L340 190Q332 131 299 86T215 15T101 -10Q62 -10 20 -2Z" />
<glyph unicode="K" glyph-name="K" horiz-adv-x="650" d="M417 340T444 282L575 4Q549 -9 492 -9Q467 -9 452 -2T430 22L323 248Q310 276 299 288T272 305T224 310H206L163 0H36L134 700H261L219 399H270H279L528 700H665L381 367Q417 340 444 282Z" />
<glyph unicode="L" glyph-name="L" horiz-adv-x="513" d="M454 91L441 0H29L127 700H254L169 91H454Z" />
<glyph unicode="M" glyph-name="M" horiz-adv-x="840" d="M749 549T749 397Q749 224 725 0H597Q614 162 621 277T629 495L628 553Q570 438 527 342T425 97H326Q311 244 295 342T251 559Q209 428 181 301T127 0H2Q35 212 79 378T187 700H328Q362 561 377 481T403
311Q449 427 488 509T589 700H731Q749 549 749 397Z" />
<glyph unicode="N" glyph-name="N" horiz-adv-x="697" d="M661 700L582 137Q574 75 570 27Q569 14 561 7T541 0H438L443 41Q444 48 444 62Q444 109 420 152L214 525L141 0H16L114 700H225Q239 700 246 697T260 680L478 290L536 700H661Z" />
<glyph unicode="O" glyph-name="O" horiz-adv-x="693" d="M172 -10T99 65T26 276Q26 407 69 505T191 657T376 710Q508 710 579 638T650 431Q650 296 608 197T488 44T303 -10Q172 -10 99 65ZM408 85T465 174T522 430Q522 521 484 568T373 615Q268 615 212 527T155
276Q155 184 193 135T303 85Q408 85 465 174Z" />
<glyph unicode="P" glyph-name="P" horiz-adv-x="615" d="M458 700T521 650T584 501Q584 376 504 307T280 238H182L149 0H22L120 700H335Q458 700 521 650ZM371 334T413 374T455 501Q455 557 421 583T315 610H234L196 334H280Q371 334 413 374Z" />
<glyph unicode="Q" glyph-name="Q" horiz-adv-x="680" d="M650 279T597 173T447 21Q488 -32 505 -52Q475 -89 425 -89Q401 -89 385 -80T355 -52Q342 -33 331 -9Q322 -10 303 -10Q172 -10 99 65T26 276Q26 407 69 505T191 657T376 710Q508 710 579 638T650 431Q650
279 597 173ZM455 137T488 220T522 430Q522 521 484 568T373 615Q268 615 212 527T155 276Q155 189 189 140T288 86L254 169H359Q366 151 391 105Q455 137 488 220Z" />
<glyph unicode="R" glyph-name="R" horiz-adv-x="636" d="M453 269T466 233L549 10Q538 2 518 -3T475 -8Q446 -8 431 0T409 29L347 205Q333 243 311 257T244 272H187L149 0H22L120 700H355Q473 700 536 654T599 521Q599 441 554 383T429 298Q453 269 466 233ZM300
365Q469 365 469 512Q469 561 437 584T335 607H234L200 365H300Z" />
<glyph unicode="S" glyph-name="S" horiz-adv-x="642" d="M213 -10T155 7T64 57T32 131Q32 171 58 192T135 214Q136 152 176 118T288 84Q364 84 405 114T446 200Q446 229 434 248T390 283T297 318Q187 354 142 398T96 515Q96 573 129 617T221 685T359 710Q460
710 527 668T612 552Q595 535 574 524T537 512Q522 512 514 518T493 542Q473 578 435 597T347 617Q290 617 258 594T226 529Q226 502 237 484T277 452T361 418Q448 389 494 363T560 306T580 227Q580 154 545 101T444 19T288 -10Q213 -10 155 7Z" />
<glyph unicode="T" glyph-name="T" horiz-adv-x="534" d="M561 686Q561 607 509 607H358L273 0H147L232 607H43L56 700H560L561 686Z" />
<glyph unicode="U" glyph-name="U" horiz-adv-x="710" d="M53 -9T53 194Q53 224 57 252L120 700H247L182 234Q179 216 179 200Q179 85 311 85Q387 85 429 121T481 234L546 700H673L610 252Q591 119 514 55T297 -9Q53 -9 53 194Z" />
<glyph unicode="V" glyph-name="V" horiz-adv-x="638" d="M656 700Q603 500 521 328T320 0H205Q133 147 99 310T64 660V700H195V660Q195 348 280 132Q356 246 418 389T525 700H656Z" />
<glyph unicode="W" glyph-name="W" horiz-adv-x="883" d="M909 700Q858 503 799 345T649 0H514Q485 160 472 258T454 463Q420 356 380 258T265 0H130Q90 169 73 322T56 664V700H181Q179 602 179 566Q179 451 187 357T216 136Q273 260 316 369T438 700H533Q556
452 568 350T600 136Q666 288 705 404T787 700H909Z" />
<glyph unicode="X" glyph-name="X" horiz-adv-x="595" d="M578 603T520 530T366 370Q414 312 446 263T502 148T528 0H397Q395 87 365 155T282 293Q209 224 160 156T84 0H-46Q-20 82 21 147T108 262T219 371Q173 426 143 472T92 575T67 700H195Q201 625 228 566T303
447Q368 508 412 567T482 700H611Q578 603 520 530Z" />
<glyph unicode="Y" glyph-name="Y" horiz-adv-x="590" d="M618 700L342 294L301 0H175L216 294L54 700H186L296 406L487 700H618Z" />
<glyph unicode="Z" glyph-name="Z" horiz-adv-x="580" d="M555 609L143 87H490L478 0H-10L2 87L420 613H74L86 700H568L555 609Z" />
<glyph unicode="[" glyph-name="bracketleft" horiz-adv-x="389" d="M144 849H377L366 772H257L146 -15H256L245 -92H12L144 849Z" />
<glyph unicode="\" glyph-name="backslash" horiz-adv-x="334" d="M332 -55L-80 811H10L422 -55H332Z" />
<glyph unicode="]" glyph-name="bracketright" horiz-adv-x="389" d="M245 -92H12L23 -15H132L243 772H133L144 849H377L245 -92Z" />
<glyph unicode="^" glyph-name="asciicircum" horiz-adv-x="657" d="M325 791H438L596 324H471L359 644L162 324H37L325 791Z" />
<glyph unicode="_" glyph-name="underscore" horiz-adv-x="684" d="M-72 -102H612L600 -189H-84L-72 -102Z" />
<glyph unicode="`" glyph-name="grave" horiz-adv-x="243" d="M21 776H157L209 625H118L21 776Z" />
<glyph unicode="a" glyph-name="a" horiz-adv-x="565" d="M465 184Q456 127 456 95Q456 53 475 24Q457 11 430 3T379 -6Q331 -6 331 72Q299 32 256 11T153 -10Q88 -10 47 28T5 134Q5 228 96 274T364 328L370 373Q371 381 371 395Q371 433 350 452T281 471Q238
471 203 455T124 407Q116 402 109 402Q93 402 78 421T53 471Q96 508 164 534T306 560Q397 560 445 520T493 406Q493 385 491 373L465 184ZM273 73T341 168L354 259Q233 255 182 226T130 145Q130 73 201 73Q273 73 341 168Z" />
<glyph unicode="b" glyph-name="b" horiz-adv-x="610" d="M416 560T461 533T531 455T556 337Q556 237 525 158T434 35T295 -10Q247 -10 207 9T144 61Q123 -5 86 -5Q62 -5 37 2T-7 22Q12 45 23 79T44 182L130 791H252L213 515Q279 560 356 560Q416 560 461 533ZM352
73T393 145T434 334Q434 403 405 441T326 479Q261 479 201 429L161 149Q201 73 280 73Q352 73 393 145Z" />
<glyph unicode="c" glyph-name="c" horiz-adv-x="567" d="M138 -10T74 52T10 226Q10 329 45 404T148 520T306 560Q405 560 462 511T519 376Q490 362 473 357T440 351Q426 351 419 360T408 389Q396 478 302 478Q221 478 178 415T134 231Q134 157 166 116T257 75Q308
75 340 102T401 194Q475 194 475 128Q475 89 447 58T368 8T254 -10Q138 -10 74 52Z" />
<glyph unicode="d" glyph-name="d" horiz-adv-x="598" d="M487 126T487 83Q487 48 499 21Q475 8 449 1T401 -6Q382 -6 373 10T362 62Q299 -10 201 -10Q109 -10 59 46T9 204Q9 309 46 390T151 515T306 560Q338 560 369 551T423 527L460 791H581L495 181Q487 126
487 83ZM410 439Q394 457 366 468T306 479Q255 479 216 445T154 348T132 203Q132 137 156 105T229 73Q272 73 306 91T370 152L410 439Z" />
<glyph unicode="e" glyph-name="e" horiz-adv-x="573" d="M145 255Q144 245 144 225Q144 154 174 115T260 75Q305 75 336 91T399 149Q408 161 421 161Q434 161 453 151T493 124Q422 -10 250 -10Q181 -10 129 19T49 100T20 222Q20 327 55 403T157 519T315 560Q422
560 473 509T525 352Q525 308 515 255H145ZM250 479T211 440T154 329H405Q408 350 408 372Q408 479 310 479Q250 479 211 440Z" />
<glyph unicode="f" glyph-name="f" horiz-adv-x="355" d="M362 789T390 774T418 730Q418 717 412 706T397 689Q367 704 324 704Q292 704 272 682T246 616L237 550H347L336 471H226L159 0H38L104 471H14L25 550H115L124 617Q136 698 185 743T310 789Q362 789 390 774Z" />
<glyph unicode="g" glyph-name="g" horiz-adv-x="585" d="M596 529T591 502Q516 502 483 482Q511 443 511 395Q511 291 447 238T256 184Q199 184 173 176T145 149Q144 130 169 124T268 117Q377 117 434 81T492 -22Q492 -109 419 -157T212 -205Q96 -205 33 -170T-30
-71Q-30 -19 6 13T111 54V57Q79 64 61 82T42 125Q42 155 67 178T133 212Q94 232 73 266T51 344Q51 448 117 504T304 560Q373 560 424 532Q453 562 487 580T550 599Q574 599 585 587T596 546Q596 529 591 502ZM386 267T386 400Q386 440 364 459T295 479Q236 479
206 446T175 349Q175 267 265 267Q386 267 386 400ZM97 35T97 -57Q97 -91 125 -107T215 -123Q291 -123 332 -99T373 -30Q373 3 341 19T240 35Q97 35 97 -57Z" />
<glyph unicode="h" glyph-name="h" horiz-adv-x="630" d="M469 560T507 523T545 421Q545 411 543 389L489 0H367L420 376Q422 394 422 401Q422 471 350 471Q276 471 186 408L129 0H7L118 791H240L197 486Q241 521 295 540T401 560Q469 560 507 523Z" />
<glyph unicode="i" glyph-name="i" horiz-adv-x="288" d="M103 550H225L148 0H26L103 550ZM370 651T370 701Q370 712 371 718L372 731Q382 798 449 798H461Q519 798 519 747Q519 737 518 731L517 718Q507 651 440 651H428Q370 651 370 701Z" />
<glyph unicode="j" glyph-name="j" horiz-adv-x="270" d="M-85 -205T-112 -199T-148 -180Q-154 -173 -154 -163Q-154 -151 -146 -137T-130 -120Q-105 -134 -66 -134Q-36 -134 -17 -116T7 -62L93 550H215L130 -53Q120 -123 73 -164T-52 -205Q-85 -205 -112 -199ZM360
651T360 701Q360 712 361 718L362 731Q372 798 439 798H451Q509 798 509 747Q509 737 508 731L507 718Q497 651 430 651H418Q360 651 360 701Z" />
<glyph unicode="k" glyph-name="k" horiz-adv-x="594" d="M375 283T390 269T416 232L525 0Q515 0 461 -3Q437 -5 430 -5Q408 -5 397 3T378 27L305 191Q295 217 273 228T208 237L175 235L142 0H21L132 791H253L187 324L215 325Q247 327 265 337T303 376L431 550H568L407
346Q391 324 379 312T348 290Q375 283 390 269Z" />
<glyph unicode="l" glyph-name="l" horiz-adv-x="268" d="M127 791H249L138 0H16L127 791Z" />
<glyph unicode="m" glyph-name="m" horiz-adv-x="912" d="M757 560T795 523T834 419Q834 410 832 388L777 0H655L709 385Q711 409 711 416Q711 450 696 464T644 479Q578 479 519 419L517 404L461 0H339L395 395Q396 403 396 418Q396 449 382 464T336 479Q272 479
201 409L143 0H22L71 356Q86 458 86 505Q86 526 84 532Q103 542 128 548T172 554Q192 554 202 542T212 504L211 488Q254 526 295 543T385 560Q432 560 464 541T510 485Q584 560 689 560Q757 560 795 523Z" />
<glyph unicode="n" glyph-name="n" horiz-adv-x="610" d="M532 560T532 420Q532 406 528 372L495 135Q487 77 487 57Q487 37 494 14Q443 -5 392 -5Q377 -5 371 6T364 43Q364 62 369 102L406 366Q409 387 409 403Q409 440 392 456T338 473Q273 473 192 410L134
0H13L65 368Q78 468 78 508Q78 520 76 534Q139 554 177 554Q205 554 205 516Q205 504 204 496L202 484Q258 526 299 543T383 560Q532 560 532 420Z" />
<glyph unicode="o" glyph-name="o" horiz-adv-x="561" d="M122 -10T66 46T9 209Q9 316 44 395T143 517T295 560Q401 560 457 505T514 344Q514 237 479 157T380 34T228 -10Q122 -10 66 46ZM308 73T350 146T392 347Q392 477 291 477Q216 477 174 405T132 204Q132
137 157 105T234 73Q308 73 350 146Z" />
<glyph unicode="p" glyph-name="p" horiz-adv-x="598" d="M452 560T502 501T552 335Q552 230 517 152T416 32T263 -10Q195 -10 138 10L105 -225H-16L65 352Q76 435 76 471Q76 504 64 526Q89 539 115 546T164 554Q200 554 203 499Q269 560 361 560Q452 560 502
501ZM305 73T345 105T408 195T430 333Q430 403 403 441T326 479Q292 479 258 463T195 414L150 95Q194 73 250 73Q305 73 345 105Z" />
<glyph unicode="q" glyph-name="q" horiz-adv-x="608" d="M530 554T572 526Q554 504 542 462T518 347L438 -225H317L353 31Q294 -10 217 -10Q122 -10 66 52T10 220Q10 322 43 399T138 518T280 560Q383 560 427 502Q446 554 480 554Q530 554 572 526ZM406 411L407
420Q389 449 361 464T295 480Q247 480 210 447T153 355T133 216Q133 148 161 110T239 71Q311 71 366 126L406 411Z" />
<glyph unicode="r" glyph-name="r" horiz-adv-x="427" d="M423 557T423 500Q423 490 422 484Q421 471 415 458T400 435Q390 442 375 445T333 448Q268 448 227 404T175 276L136 0H15L92 550H213L202 468Q229 510 267 533T347 557Q423 557 423 500Z" />
<glyph unicode="s" glyph-name="s" horiz-adv-x="498" d="M131 -10T86 3T16 38T-9 89Q-9 116 9 134T61 156Q96 73 202 73Q255 73 285 94T315 152Q315 173 301 187T267 211T206 235Q155 253 123 269T67 314T44 390Q44 444 75 482T157 540T267 560Q339 560 389 533T464
459Q448 438 428 424T392 409Q383 409 377 412T365 424Q327 479 261 479Q216 479 189 461T161 411Q161 387 176 371T213 345T276 319Q327 300 357 285T410 241T432 169Q432 84 368 37T189 -10Q131 -10 86 3Z" />
<glyph unicode="t" glyph-name="t" horiz-adv-x="395" d="M186 141Q184 125 184 120Q184 94 196 82T235 70Q273 70 317 87Q332 80 332 57Q332 33 314 19Q297 6 265 -2T193 -10Q132 -10 97 21T61 105Q61 112 63 128L111 469H21L32 550H123L144 700H265L244 550H361L350
469H232L186 141Z" />
<glyph unicode="u" glyph-name="u" horiz-adv-x="623" d="M504 126Q498 81 498 55Q498 34 503 14Q465 -5 419 -5Q393 -5 383 9T374 61Q342 27 297 9T200 -10Q122 -10 82 27T41 136Q41 156 44 177L97 550H218L166 182Q163 164 163 148Q163 108 182 90T240 71Q322
71 386 152L441 550H564L504 126Z" />
<glyph unicode="v" glyph-name="v" horiz-adv-x="548" d="M548 550Q513 386 447 252T277 0H162Q99 105 69 221T38 473Q38 524 40 550H165Q160 492 160 450Q160 355 178 273T236 112Q308 210 353 315T421 550H548Z" />
<glyph unicode="w" glyph-name="w" horiz-adv-x="787" d="M781 550Q747 391 691 256T555 0H464Q431 83 412 162T387 328Q326 160 216 0H124Q82 101 62 213T42 460Q42 488 44 550H164Q161 475 161 415Q161 326 169 261T195 138Q305 317 364 550H470Q469 533 469
499Q469 294 523 135Q569 216 601 314T658 550H781Z" />
<glyph unicode="x" glyph-name="x" horiz-adv-x="508" d="M496 502T467 458T401 376T304 287Q367 216 401 155T436 19L435 0H318Q321 59 297 111T228 220Q167 165 128 112T76 0H-41Q-24 80 29 145T170 288Q126 338 99 375T55 457T41 550H158Q154 500 177 454T246
353Q308 409 344 454T390 550H507Q496 502 467 458Z" />
<glyph unicode="y" glyph-name="y" horiz-adv-x="518" d="M537 550L241 -42Q195 -133 146 -170T23 -207Q-21 -207 -46 -191T-71 -145Q-71 -113 -43 -93Q-20 -110 19 -110Q58 -110 86 -83T144 9L24 550H147L224 157L410 550H537Z" />
<glyph unicode="z" glyph-name="z" horiz-adv-x="513" d="M485 476L133 85H438L426 0H-27L-17 75L335 465H64L76 550H495L485 476Z" />
<glyph unicode="{" glyph-name="braceleft" horiz-adv-x="364" d="M111 -104T82 -76T52 3Q52 10 54 28L84 241Q86 257 86 263Q86 319 24 330L31 381Q72 388 91 411T116 471L146 684Q154 744 193 779T294 815H375L365 739H336Q273 739 262 667L235 474Q228 421
203 395T136 357L135 354Q204 338 204 266Q204 258 202 238L175 45Q174 39 174 27Q174 -27 229 -27H257L246 -104H165Q111 -104 82 -76Z" />
<glyph unicode="|" glyph-name="bar" horiz-adv-x="270" d="M134 802H246L132 -12H20L134 802Z" />
<glyph unicode="}" glyph-name="braceright" horiz-adv-x="364" d="M253 815T282 787T312 708Q312 701 310 683L280 470Q278 454 278 448Q278 392 340 381L333 330Q292 323 273 300T248 240L218 27Q210 -33 171 -68T70 -104H-11L-1 -28H28Q91 -28 102 44L129 237Q136
290 161 316T228 354L229 357Q160 373 160 445Q160 453 162 473L189 666Q190 672 190 684Q190 738 135 738H107L118 815H199Q253 815 282 787Z" />
<glyph unicode="~" glyph-name="asciitilde" horiz-adv-x="600" d="M30 270Q56 309 96 332T187 356Q218 356 240 347T295 320Q320 304 340 296T384 288Q422 288 444 305T490 359L540 312Q516 268 475 242T378 215Q343 215 319 224T265 252Q238 268 221 275T180
282Q148 282 121 264T74 213L30 270Z" />
<glyph unicode="&#xa0;" glyph-name="uni00A0" horiz-adv-x="258" />
<glyph unicode="&#xa1;" glyph-name="exclamdown" horiz-adv-x="243" d="M224 564T224 512Q224 502 223 497L222 484Q212 417 145 417H133Q75 417 75 467Q75 478 76 484L77 497Q86 564 154 564H166Q224 564 224 512ZM131 -140H-9L87 341H170L131 -140Z" />
<glyph unicode="&#xa2;" glyph-name="cent" horiz-adv-x="547" d="M475 194T475 128Q475 89 447 58T368 8T254 -10Q201 -10 157 4L117 -80H57L107 27Q60 56 35 106T10 226Q10 329 45 404T148 520T306 560Q336 560 357 556L396 638H455L410 542Q462 521 490 478T519
376Q490 362 473 357T440 351Q426 351 419 360T408 389Q402 436 371 459L197 90Q222 75 257 75Q308 75 340 102T401 194Q475 194 475 128ZM134 169T157 131L320 477Q314 478 302 478Q221 478 178 415T134 231Q134 169 157 131Z" />
<glyph unicode="&#xa3;" glyph-name="sterling" horiz-adv-x="609" d="M336 75T372 104T427 200L527 188Q510 101 448 46T288 -10Q232 -10 192 2T120 38Q52 -7 -43 -10L-29 86Q50 92 82 134T114 259Q114 275 112 317H1L11 388H107Q104 423 104 454Q104 576 167
643T345 710Q440 710 498 663T560 533Q549 524 524 516T482 507Q459 507 454 534Q446 580 419 602T342 625Q276 625 250 581T223 454Q223 423 226 388H364L354 317H231Q234 284 234 256Q234 172 190 106Q234 75 284 75Q336 75 372 104Z" />
<glyph unicode="&#xa4;" glyph-name="currency" horiz-adv-x="609" d="M-7 122L60 181Q22 233 22 310Q22 332 25 353Q39 451 108 523L57 582L103 624L157 563Q197 593 242 608T334 624Q429 624 496 563L564 624L600 582L533 523Q571 468 571 396Q571 376 568 353Q562
304 541 260T485 181L536 122L488 81L436 140Q351 81 258 81Q162 81 97 140L27 81L-7 122ZM324 188T366 213T434 282T459 380Q459 442 421 480T320 518Q269 518 227 493T159 424T134 326Q134 265 172 227T273 188Q324 188 366 213Z" />
<glyph unicode="&#xa5;" glyph-name="yen" horiz-adv-x="590" d="M389 363H506L498 307H351L342 294L332 224H486L478 168H324L301 0H175L198 168H44L52 224H206L216 294L211 307H64L72 363H188L54 700H186L296 406L487 700H618L389 363Z" />
<glyph unicode="&#xa6;" glyph-name="brokenbar" horiz-adv-x="270" d="M134 802H246L203 495H91L134 802ZM63 295H175L132 -12H20L63 295Z" />
<glyph unicode="&#xa7;" glyph-name="section" horiz-adv-x="493" d="M322 285T322 292Q322 354 264 380L151 428Q74 463 74 546Q74 622 130 664T275 707Q368 707 416 668T460 565L355 556Q355 591 338 610T273 629Q231 629 206 610T180 553Q180 532 193 519T236
493L358 441Q399 423 417 393T435 319Q435 291 431 267H320Q322 285 322 292ZM100 -88T50 -49T4 54L110 63Q108 30 128 10T192 -10Q233 -10 259 13T285 73Q285 94 274 107T236 132L115 185Q70 204 50 235T30 310Q30 322 34 352H145Q144 346 144 333Q144 302 161
279T214 239L321 191Q398 155 398 80Q398 -6 342 -47T189 -88Q100 -88 50 -49Z" />
<glyph unicode="&#xa8;" glyph-name="dieresis" horiz-adv-x="329" d="M40 640T40 685Q40 694 41 698L43 710Q51 768 109 768H120Q171 768 171 722Q171 714 170 710L168 698Q161 640 102 640H91Q40 640 40 685ZM241 640T241 685Q241 694 242 698L244 710Q248 738
264 753T310 768H321Q372 768 372 724Q372 715 371 710L370 698Q361 640 303 640H293Q241 640 241 685Z" />
<glyph unicode="&#xa9;" glyph-name="copyright" horiz-adv-x="774" d="M237 -10T165 29T54 137T15 296Q15 412 68 506T216 655T426 710Q522 710 593 672T704 565T743 406Q743 291 690 196T543 45T332 -10Q237 -10 165 29ZM435 39T515 87T640 219T686 401Q686
479 653 537T560 628T422 661Q323 661 243 614T118 484T73 301Q73 224 106 165T198 72T336 39Q435 39 515 87ZM273 132T225 179T177 307Q177 383 205 442T288 534T416 567Q494 567 536 530T582 422L496 403Q495 447 475 469T408 491Q340 491 307 443T274 315Q274
263 299 236T371 208Q411 208 435 226T474 280L557 260Q536 202 487 167T362 132Q273 132 225 179Z" />
<glyph unicode="&#xaa;" glyph-name="ordfeminine" horiz-adv-x="380" d="M373 579T361 505Q349 433 349 408Q349 386 355 377Q330 360 291 360Q252 360 252 402V404Q214 359 143 359Q97 359 68 382T38 449Q38 500 69 527T150 563T275 573Q277 593 277 599Q277
647 224 647Q201 647 183 641T146 624Q134 617 126 614T109 610Q96 610 87 625T75 664Q148 712 245 712Q304 712 338 687T373 610Q373 579 361 505ZM198 423T220 434T259 466L268 518Q201 516 168 502T135 459Q135 443 145 433T174 423Q198 423 220 434Z" />
<glyph unicode="&#xab;" glyph-name="guillemotleft" horiz-adv-x="547" d="M228 288L379 452H495L353 288L448 117H332L228 288ZM33 288L184 452H300L158 288L253 117H137L33 288Z" />
<glyph unicode="&#xac;" glyph-name="logicalnot" horiz-adv-x="600" d="M409 294H34L46 380H536L497 104H382L409 294Z" />
<glyph unicode="&#xad;" glyph-name="uni00AD" horiz-adv-x="380" d="M31 344H331L321 270H21L31 344Z" />
<glyph unicode="&#xae;" glyph-name="registered" horiz-adv-x="774" d="M522 710T593 672T704 565T743 406Q743 291 690 196T543 45T332 -10Q237 -10 165 29T54 137T15 296Q15 412 68 506T216 655T426 710Q522 710 593 672ZM435 39T515 87T640 219T686 401Q686
479 653 537T560 628T422 661Q323 661 243 614T118 484T73 301Q73 224 106 165T198 72T336 39Q435 39 515 87ZM497 543T534 512T572 427Q572 375 546 341T473 292L529 145H427L378 284H322L302 145H205L261 543H434Q497 543 534 512ZM332 357H397Q434 357 453 375T472
425Q472 469 416 469H348L332 357Z" />
<glyph unicode="&#xaf;" glyph-name="overscore" horiz-adv-x="243" d="M4 734H330L318 647H-8L4 734Z" />
<glyph unicode="&#xb0;" glyph-name="degree" horiz-adv-x="438" d="M169 481T130 522T90 628Q90 675 113 715T177 778T270 802Q336 802 375 762T414 655Q414 608 391 568T327 505T233 481Q169 481 130 522ZM291 541T320 572T349 655Q349 694 327 718T264 742Q214
742 184 711T154 628Q154 589 177 565T240 541Q291 541 320 572Z" />
<glyph unicode="&#xb1;" glyph-name="plusminus" horiz-adv-x="600" d="M254 341H31L41 414H264L294 629H369L338 414H561L551 341H328L298 125H223L254 341ZM-7 72H513L503 0H-17L-7 72Z" />
<glyph unicode="&#xb2;" glyph-name="uni00B2" horiz-adv-x="362" d="M366 527T342 488T279 420T181 359H330L319 282H11L19 339L48 355Q122 397 164 425T235 490T264 573Q264 602 249 617T206 633Q172 633 152 611T125 554Q57 554 57 600Q57 630 78 655T136 695T216
710Q286 710 326 673T366 578Q366 527 342 488Z" />
<glyph unicode="&#xb3;" glyph-name="uni00B3" horiz-adv-x="370" d="M318 494T334 472T351 417Q351 350 302 314T164 278Q100 278 56 294T12 343Q12 363 23 373T53 390Q69 371 97 359T168 347Q256 347 256 422Q256 446 243 458T200 470L173 469Q164 468 150 468Q141
468 132 488T122 522Q122 529 126 533T137 537H201Q236 537 253 553T270 597Q270 620 254 632T207 645Q175 645 151 632T104 592Q87 592 76 601T65 626Q65 664 111 687T223 710Q287 710 326 679T366 603Q366 566 347 541T291 505Q318 494 334 472Z" />
<glyph unicode="&#xb4;" glyph-name="acute" horiz-adv-x="243" d="M198 776H337L200 625H93L198 776Z" />
<glyph unicode="&#xb6;" glyph-name="paragraph" horiz-adv-x="570" d="M194 328Q149 331 113 354T57 416T36 504Q36 579 70 635T167 720T311 750H618L607 674H532L438 0H338L432 674H342L248 0H148L194 328Z" />
<glyph unicode="&#xb7;" glyph-name="middot" horiz-adv-x="308" d="M65 234T65 286Q65 296 66 301L68 314Q77 381 145 381H157Q215 381 215 329Q215 319 214 314L212 301Q203 234 136 234H124Q65 234 65 286Z" />
<glyph unicode="&#xb8;" glyph-name="cedilla" horiz-adv-x="250" d="M115 -52T140 -71T165 -124Q165 -178 123 -207T15 -236Q-33 -236 -56 -224T-79 -192Q-79 -182 -72 -166Q-60 -171 -37 -174T11 -177Q41 -177 57 -166T73 -134Q73 -108 39 -108Q22 -108 6 -114L-19
-75L42 0H120L66 -52H76Q115 -52 140 -71Z" />
<glyph unicode="&#xb9;" glyph-name="uni00B9" horiz-adv-x="379" d="M315 357L304 282H31L42 357H132L168 615Q150 600 130 590T91 579Q44 579 44 629Q44 640 45 645Q79 648 124 666T194 710H280L231 357H315Z" />
<glyph unicode="&#xba;" glyph-name="ordmasculine" horiz-adv-x="380" d="M112 357T75 394T38 497Q38 558 61 606T129 682T233 710Q304 710 341 672T378 568Q378 508 354 460T286 385T184 357Q112 357 75 394ZM241 422T261 466T282 575Q282 612 268 628T224 645Q176
645 155 600T133 492Q133 455 147 439T193 422Q241 422 261 466Z" />
<glyph unicode="&#xbb;" glyph-name="guillemotright" horiz-adv-x="547" d="M319 281L168 117H52L194 281L99 452H215L319 281ZM514 281L363 117H247L389 281L294 452H410L514 281Z" />
<glyph unicode="&#xbc;" glyph-name="onequarter" horiz-adv-x="989" d="M315 357L304 282H31L42 357H132L168 615Q150 600 130 590T91 579Q44 579 44 629Q44 640 45 645Q79 648 124 666T194 710H280L231 357H315ZM660 700H752L332 0H240L660 700ZM925 85H879L867
0H768L780 85H576L582 129Q655 208 691 272T742 423Q764 425 774 425Q802 425 817 415T832 382Q829 328 791 266T698 153H789L802 242H901L888 153H935L925 85Z" />
<glyph unicode="&#xbd;" glyph-name="onehalf" horiz-adv-x="965" d="M315 357L304 282H31L42 357H132L168 615Q150 600 130 590T91 579Q44 579 44 629Q44 640 45 645Q79 648 124 666T194 710H280L231 357H315ZM660 700H752L332 0H240L660 700ZM928 246T904 207T841
139T743 78H892L881 1H573L581 58L610 74Q684 116 726 144T797 209T826 292Q826 321 811 336T768 352Q734 352 714 330T687 273Q619 273 619 319Q619 349 640 374T698 414T778 429Q848 429 888 392T928 297Q928 246 904 207Z" />
<glyph unicode="&#xbe;" glyph-name="threequarters" horiz-adv-x="974" d="M318 494T334 472T351 417Q351 350 302 314T164 278Q100 278 56 294T12 343Q12 363 23 373T53 390Q69 371 97 359T168 347Q256 347 256 422Q256 446 243 458T200 470L173 469Q164 468
150 468Q141 468 132 488T122 522Q122 529 126 533T137 537H201Q236 537 253 553T270 597Q270 620 254 632T207 645Q175 645 151 632T104 592Q87 592 76 601T65 626Q65 664 111 687T223 710Q287 710 326 679T366 603Q366 566 347 541T291 505Q318 494 334 472ZM651
700H743L323 0H231L651 700ZM910 85H864L852 0H753L765 85H561L567 129Q640 208 676 272T727 423Q749 425 759 425Q787 425 802 415T817 382Q814 328 776 266T683 153H774L787 242H886L873 153H920L910 85Z" />
<glyph unicode="&#xbf;" glyph-name="questiondown" horiz-adv-x="475" d="M355 556T355 504Q355 489 352 474Q343 409 276 409H264Q206 409 206 460Q206 470 208 490Q217 556 285 556H297Q355 556 355 504ZM311 310Q303 254 273 217T188 136Q142 100 122 74T101
6Q101 -68 186 -68Q235 -68 263 -40T306 36L408 7Q390 -65 327 -111T171 -157Q85 -157 33 -113T-20 4Q-20 51 -5 83T36 137T107 192Q152 224 175 251T206 321L210 343H316L311 310Z" />
<glyph unicode="&#xc0;" glyph-name="Agrave" horiz-adv-x="647" d="M447 107T440 183H142Q115 108 83 0H-42Q15 206 99 377T301 700H429Q500 538 536 365T575 0H450Q447 107 440 183ZM430 276Q407 453 350 600Q245 447 177 276H430ZM501 886H637L689 735H598L501 886Z" />
<glyph unicode="&#xc1;" glyph-name="Aacute" horiz-adv-x="647" d="M447 107T440 183H142Q115 108 83 0H-42Q15 206 99 377T301 700H429Q500 538 536 365T575 0H450Q447 107 440 183ZM430 276Q407 453 350 600Q245 447 177 276H430ZM409 886H548L411 735H304L409 886Z" />
<glyph unicode="&#xc2;" glyph-name="Acircumflex" horiz-adv-x="647" d="M447 107T440 183H142Q115 108 83 0H-42Q15 206 99 377T301 700H429Q500 538 536 365T575 0H450Q447 107 440 183ZM430 276Q407 453 350 600Q245 447 177 276H430ZM583 882H709L786 735H697L639
818L556 735H463L583 882Z" />
<glyph unicode="&#xc3;" glyph-name="Atilde" horiz-adv-x="647" d="M447 107T440 183H142Q115 108 83 0H-42Q15 206 99 377T301 700H429Q500 538 536 365T575 0H450Q447 107 440 183ZM430 276Q407 453 350 600Q245 447 177 276H430ZM503 748T490 760T477 793Q477
832 506 853T575 875Q597 875 612 870T647 853Q663 845 672 841T695 837Q717 837 727 847T742 878Q769 878 782 869T796 837Q796 802 768 776T700 750Q677 750 661 755T625 771Q606 780 596 783T572 787Q536 787 526 748Q503 748 490 760Z" />
<glyph unicode="&#xc4;" glyph-name="Adieresis" horiz-adv-x="647" d="M447 107T440 183H142Q115 108 83 0H-42Q15 206 99 377T301 700H429Q500 538 536 365T575 0H450Q447 107 440 183ZM430 276Q407 453 350 600Q245 447 177 276H430ZM215 750T215 795Q215 804
216 808L218 820Q226 878 284 878H295Q346 878 346 832Q346 824 345 820L343 808Q336 750 277 750H266Q215 750 215 795ZM416 750T416 795Q416 804 417 808L419 820Q423 848 439 863T485 878H496Q547 878 547 834Q547 825 546 820L545 808Q536 750 478 750H468Q416
750 416 795Z" />
<glyph unicode="&#xc5;" glyph-name="Aring" horiz-adv-x="647" d="M447 107T440 183H142Q115 108 83 0H-42Q15 206 99 377T301 700H429Q500 538 536 365T575 0H450Q447 107 440 183ZM430 276Q407 453 350 600Q245 447 177 276H430ZM578 743T548 773T517 851Q517
892 536 924T588 974T660 992Q708 992 738 962T768 884Q768 843 749 811T698 761T626 743Q578 743 548 773ZM660 818T676 834T693 875Q693 894 681 905T650 916Q626 916 610 901T593 861Q593 842 605 830T636 818Q660 818 676 834Z" />
<glyph unicode="&#xc6;" glyph-name="AE" horiz-adv-x="957" d="M621 613L591 403H861L849 316H579L547 87H861Q854 37 839 19T784 0H416L445 206H171Q123 114 85 0H-42Q27 202 146 383T443 700H946L934 613H621ZM457 293L502 613H493Q340 496 219 293H457Z" />
<glyph unicode="&#xc7;" glyph-name="Ccedilla" horiz-adv-x="623" d="M460 710T516 688T610 626Q600 600 580 578T545 555Q532 555 517 566Q478 593 450 604T389 615Q321 615 271 575T195 459T168 281Q168 85 328 85Q376 85 412 98T484 141Q503 140 515 127T527
93Q527 69 503 47T437 10T346 -9L301 -52H310Q349 -52 374 -71T399 -124Q399 -178 357 -207T250 -236Q201 -236 179 -224T156 -192Q156 -179 163 -166Q174 -171 196 -174T245 -177Q275 -177 291 -166T308 -134Q308 -108 273 -108Q257 -108 240 -114L215 -75L271
-8Q159 5 99 80T38 282Q38 414 80 510T203 658T394 710Q460 710 516 688Z" />
<glyph unicode="&#xc8;" glyph-name="Egrave" horiz-adv-x="560" d="M228 609L199 405H456L443 315H187L155 91H467Q460 38 447 19T403 0H16L114 700H545L532 609H228ZM460 889H596L648 738H557L460 889Z" />
<glyph unicode="&#xc9;" glyph-name="Eacute" horiz-adv-x="560" d="M228 609L199 405H456L443 315H187L155 91H467Q460 38 447 19T403 0H16L114 700H545L532 609H228ZM368 889H507L370 738H263L368 889Z" />
<glyph unicode="&#xca;" glyph-name="Ecircumflex" horiz-adv-x="560" d="M228 609L199 405H456L443 315H187L155 91H467Q460 38 447 19T403 0H16L114 700H545L532 609H228ZM542 885H668L745 738H656L598 821L515 738H422L542 885Z" />
<glyph unicode="&#xcb;" glyph-name="Edieresis" horiz-adv-x="560" d="M228 609L199 405H456L443 315H187L155 91H467Q460 38 447 19T403 0H16L114 700H545L532 609H228ZM174 753T174 798Q174 807 175 811L177 823Q185 881 243 881H254Q305 881 305 835Q305 827
304 823L302 811Q295 753 236 753H225Q174 753 174 798ZM375 753T375 798Q375 807 376 811L378 823Q382 851 398 866T444 881H455Q506 881 506 837Q506 828 505 823L504 811Q495 753 437 753H427Q375 753 375 798Z" />
<glyph unicode="&#xcc;" glyph-name="Igrave" horiz-adv-x="350" d="M153 700H279L181 0H55L153 700ZM353 886H489L541 735H450L353 886Z" />
<glyph unicode="&#xcd;" glyph-name="Iacute" horiz-adv-x="350" d="M153 700H279L181 0H55L153 700ZM261 886H400L263 735H156L261 886Z" />
<glyph unicode="&#xce;" glyph-name="Icircumflex" horiz-adv-x="350" d="M153 700H279L181 0H55L153 700ZM435 882H561L638 735H549L491 818L408 735H315L435 882Z" />
<glyph unicode="&#xcf;" glyph-name="Idieresis" horiz-adv-x="350" d="M153 700H279L181 0H55L153 700ZM67 750T67 795Q67 804 68 808L70 820Q78 878 136 878H147Q198 878 198 832Q198 824 197 820L195 808Q188 750 129 750H118Q67 750 67 795ZM268 750T268 795Q268
804 269 808L271 820Q275 848 291 863T337 878H348Q399 878 399 834Q399 825 398 820L397 808Q388 750 330 750H320Q268 750 268 795Z" />
<glyph unicode="&#xd0;" glyph-name="Eth" horiz-adv-x="672" d="M426 700T493 666T596 566T632 413Q632 290 585 197T452 52T253 0H16L60 314H-12L-1 397H72L114 700H334Q426 700 493 666ZM323 91T382 129T473 239T505 409Q505 506 456 557T315 609H227L198 397H344L333
314H186L155 91H242Q323 91 382 129Z" />
<glyph unicode="&#xd1;" glyph-name="Ntilde" horiz-adv-x="697" d="M661 700L582 137Q574 75 570 27Q569 14 561 7T541 0H438L443 41Q444 48 444 62Q444 109 420 152L214 525L141 0H16L114 700H225Q239 700 246 697T260 680L478 290L536 700H661ZM527 748T514
760T501 793Q501 832 530 853T599 875Q621 875 636 870T671 853Q687 845 696 841T719 837Q741 837 751 847T766 878Q793 878 806 869T820 837Q820 802 792 776T724 750Q701 750 685 755T649 771Q630 780 620 783T596 787Q560 787 550 748Q527 748 514 760Z" />
<glyph unicode="&#xd2;" glyph-name="Ograve" horiz-adv-x="693" d="M172 -10T99 65T26 276Q26 407 69 505T191 657T376 710Q508 710 579 638T650 431Q650 296 608 197T488 44T303 -10Q172 -10 99 65ZM408 85T465 174T522 430Q522 521 484 568T373 615Q268 615
212 527T155 276Q155 184 193 135T303 85Q408 85 465 174ZM519 886H655L707 735H616L519 886Z" />
<glyph unicode="&#xd3;" glyph-name="Oacute" horiz-adv-x="693" d="M172 -10T99 65T26 276Q26 407 69 505T191 657T376 710Q508 710 579 638T650 431Q650 296 608 197T488 44T303 -10Q172 -10 99 65ZM408 85T465 174T522 430Q522 521 484 568T373 615Q268 615
212 527T155 276Q155 184 193 135T303 85Q408 85 465 174ZM427 886H566L429 735H322L427 886Z" />
<glyph unicode="&#xd4;" glyph-name="Ocircumflex" horiz-adv-x="693" d="M172 -10T99 65T26 276Q26 407 69 505T191 657T376 710Q508 710 579 638T650 431Q650 296 608 197T488 44T303 -10Q172 -10 99 65ZM408 85T465 174T522 430Q522 521 484 568T373 615Q268
615 212 527T155 276Q155 184 193 135T303 85Q408 85 465 174ZM601 882H727L804 735H715L657 818L574 735H481L601 882Z" />
<glyph unicode="&#xd5;" glyph-name="Otilde" horiz-adv-x="693" d="M172 -10T99 65T26 276Q26 407 69 505T191 657T376 710Q508 710 579 638T650 431Q650 296 608 197T488 44T303 -10Q172 -10 99 65ZM408 85T465 174T522 430Q522 521 484 568T373 615Q268 615
212 527T155 276Q155 184 193 135T303 85Q408 85 465 174ZM521 748T508 760T495 793Q495 832 524 853T593 875Q615 875 630 870T665 853Q681 845 690 841T713 837Q735 837 745 847T760 878Q787 878 800 869T814 837Q814 802 786 776T718 750Q695 750 679 755T643
771Q624 780 614 783T590 787Q554 787 544 748Q521 748 508 760Z" />
<glyph unicode="&#xd6;" glyph-name="Odieresis" horiz-adv-x="693" d="M172 -10T99 65T26 276Q26 407 69 505T191 657T376 710Q508 710 579 638T650 431Q650 296 608 197T488 44T303 -10Q172 -10 99 65ZM408 85T465 174T522 430Q522 521 484 568T373 615Q268
615 212 527T155 276Q155 184 193 135T303 85Q408 85 465 174ZM233 750T233 795Q233 804 234 808L236 820Q244 878 302 878H313Q364 878 364 832Q364 824 363 820L361 808Q354 750 295 750H284Q233 750 233 795ZM434 750T434 795Q434 804 435 808L437 820Q441 848
457 863T503 878H514Q565 878 565 834Q565 825 564 820L563 808Q554 750 496 750H486Q434 750 434 795Z" />
<glyph unicode="&#xd7;" glyph-name="multiply" horiz-adv-x="600" d="M64 173L236 324L107 475L162 524L291 376L463 526L512 475L340 324L469 173L414 125L285 272L113 122L64 173Z" />
<glyph unicode="&#xd8;" glyph-name="Oslash" horiz-adv-x="680" d="M594 620Q650 550 650 431Q650 296 608 197T488 44T303 -10Q184 -10 113 53L68 0H-4L76 94Q26 165 26 276Q26 407 69 505T191 657T376 710Q484 710 554 659L590 701H662L594 620ZM155 233T164
198L481 572Q443 615 373 615Q268 615 212 527T155 276Q155 233 164 198ZM522 483T509 521L188 142Q227 85 303 85Q408 85 465 174T522 430Q522 483 509 521Z" />
<glyph unicode="&#xd9;" glyph-name="Ugrave" horiz-adv-x="710" d="M53 -9T53 194Q53 224 57 252L120 700H247L182 234Q179 216 179 200Q179 85 311 85Q387 85 429 121T481 234L546 700H673L610 252Q591 119 514 55T297 -9Q53 -9 53 194ZM533 889H669L721 738H630L533
889Z" />
<glyph unicode="&#xda;" glyph-name="Uacute" horiz-adv-x="710" d="M53 -9T53 194Q53 224 57 252L120 700H247L182 234Q179 216 179 200Q179 85 311 85Q387 85 429 121T481 234L546 700H673L610 252Q591 119 514 55T297 -9Q53 -9 53 194ZM441 889H580L443 738H336L441
889Z" />
<glyph unicode="&#xdb;" glyph-name="Ucircumflex" horiz-adv-x="710" d="M53 -9T53 194Q53 224 57 252L120 700H247L182 234Q179 216 179 200Q179 85 311 85Q387 85 429 121T481 234L546 700H673L610 252Q591 119 514 55T297 -9Q53 -9 53 194ZM615 885H741L818
738H729L671 821L588 738H495L615 885Z" />
<glyph unicode="&#xdc;" glyph-name="Udieresis" horiz-adv-x="710" d="M53 -9T53 194Q53 224 57 252L120 700H247L182 234Q179 216 179 200Q179 85 311 85Q387 85 429 121T481 234L546 700H673L610 252Q591 119 514 55T297 -9Q53 -9 53 194ZM247 753T247 798Q247
807 248 811L250 823Q258 881 316 881H327Q378 881 378 835Q378 827 377 823L375 811Q368 753 309 753H298Q247 753 247 798ZM448 753T448 798Q448 807 449 811L451 823Q455 851 471 866T517 881H528Q579 881 579 837Q579 828 578 823L577 811Q568 753 510 753H500Q448
753 448 798Z" />
<glyph unicode="&#xdd;" glyph-name="Yacute" horiz-adv-x="590" d="M618 700L342 294L301 0H175L216 294L54 700H186L296 406L487 700H618ZM381 886H520L383 735H276L381 886Z" />
<glyph unicode="&#xde;" glyph-name="Thorn" horiz-adv-x="641" d="M445 599T510 546T575 396Q575 270 496 200T276 130H172L154 0H30L128 700H252L238 599H322Q445 599 510 546ZM361 225T404 267T448 396Q448 451 415 478T312 505H225L186 225H273Q361 225 404 267Z" />
<glyph unicode="&#xdf;" glyph-name="germandbls" horiz-adv-x="630" d="M493 345T519 307T546 216Q546 110 485 48T313 -14Q248 -14 207 4T165 59Q165 78 174 92T198 110Q239 69 305 69Q370 69 405 107T440 212Q440 265 415 289T334 314Q324 314 306 312L281
311Q269 311 260 333T250 374Q250 395 259 395H323Q386 395 424 434T462 540Q462 591 432 620T345 650Q279 650 241 614T193 509L122 0H14L85 509Q100 614 172 672T351 731Q416 731 465 708T542 644T569 548Q569 481 537 431T446 359Q493 345 519 307Z" />
<glyph unicode="&#xe0;" glyph-name="agrave" horiz-adv-x="565" d="M465 184Q456 127 456 95Q456 53 475 24Q457 11 430 3T379 -6Q331 -6 331 72Q299 32 256 11T153 -10Q88 -10 47 28T5 134Q5 228 96 274T364 328L370 373Q371 381 371 395Q371 433 350 452T281
471Q238 471 203 455T124 407Q116 402 109 402Q93 402 78 421T53 471Q96 508 164 534T306 560Q397 560 445 520T493 406Q493 385 491 373L465 184ZM273 73T341 168L354 259Q233 255 182 226T130 145Q130 73 201 73Q273 73 341 168ZM440 776H576L628 625H537L440
776Z" />
<glyph unicode="&#xe1;" glyph-name="aacute" horiz-adv-x="565" d="M465 184Q456 127 456 95Q456 53 475 24Q457 11 430 3T379 -6Q331 -6 331 72Q299 32 256 11T153 -10Q88 -10 47 28T5 134Q5 228 96 274T364 328L370 373Q371 381 371 395Q371 433 350 452T281
471Q238 471 203 455T124 407Q116 402 109 402Q93 402 78 421T53 471Q96 508 164 534T306 560Q397 560 445 520T493 406Q493 385 491 373L465 184ZM273 73T341 168L354 259Q233 255 182 226T130 145Q130 73 201 73Q273 73 341 168ZM348 776H487L350 625H243L348
776Z" />
<glyph unicode="&#xe2;" glyph-name="acircumflex" horiz-adv-x="565" d="M465 184Q456 127 456 95Q456 53 475 24Q457 11 430 3T379 -6Q331 -6 331 72Q299 32 256 11T153 -10Q88 -10 47 28T5 134Q5 228 96 274T364 328L370 373Q371 381 371 395Q371 433 350 452T281
471Q238 471 203 455T124 407Q116 402 109 402Q93 402 78 421T53 471Q96 508 164 534T306 560Q397 560 445 520T493 406Q493 385 491 373L465 184ZM273 73T341 168L354 259Q233 255 182 226T130 145Q130 73 201 73Q273 73 341 168ZM522 772H648L725 625H636L578
708L495 625H402L522 772Z" />
<glyph unicode="&#xe3;" glyph-name="atilde" horiz-adv-x="565" d="M465 184Q456 127 456 95Q456 53 475 24Q457 11 430 3T379 -6Q331 -6 331 72Q299 32 256 11T153 -10Q88 -10 47 28T5 134Q5 228 96 274T364 328L370 373Q371 381 371 395Q371 433 350 452T281
471Q238 471 203 455T124 407Q116 402 109 402Q93 402 78 421T53 471Q96 508 164 534T306 560Q397 560 445 520T493 406Q493 385 491 373L465 184ZM273 73T341 168L354 259Q233 255 182 226T130 145Q130 73 201 73Q273 73 341 168ZM442 638T429 650T416 683Q416
722 445 743T514 765Q536 765 551 760T586 743Q602 735 611 731T634 727Q656 727 666 737T681 768Q708 768 721 759T735 727Q735 692 707 666T639 640Q616 640 600 645T564 661Q545 670 535 673T511 677Q475 677 465 638Q442 638 429 650Z" />
<glyph unicode="&#xe4;" glyph-name="adieresis" horiz-adv-x="565" d="M465 184Q456 127 456 95Q456 53 475 24Q457 11 430 3T379 -6Q331 -6 331 72Q299 32 256 11T153 -10Q88 -10 47 28T5 134Q5 228 96 274T364 328L370 373Q371 381 371 395Q371 433 350 452T281
471Q238 471 203 455T124 407Q116 402 109 402Q93 402 78 421T53 471Q96 508 164 534T306 560Q397 560 445 520T493 406Q493 385 491 373L465 184ZM273 73T341 168L354 259Q233 255 182 226T130 145Q130 73 201 73Q273 73 341 168ZM154 640T154 685Q154 694 155
698L157 710Q165 768 223 768H234Q285 768 285 722Q285 714 284 710L282 698Q275 640 216 640H205Q154 640 154 685ZM355 640T355 685Q355 694 356 698L358 710Q362 738 378 753T424 768H435Q486 768 486 724Q486 715 485 710L484 698Q475 640 417 640H407Q355
640 355 685Z" />
<glyph unicode="&#xe5;" glyph-name="aring" horiz-adv-x="565" d="M465 184Q456 127 456 95Q456 53 475 24Q457 11 430 3T379 -6Q331 -6 331 72Q299 32 256 11T153 -10Q88 -10 47 28T5 134Q5 228 96 274T364 328L370 373Q371 381 371 395Q371 433 350 452T281
471Q238 471 203 455T124 407Q116 402 109 402Q93 402 78 421T53 471Q96 508 164 534T306 560Q397 560 445 520T493 406Q493 385 491 373L465 184ZM273 73T341 168L354 259Q233 255 182 226T130 145Q130 73 201 73Q273 73 341 168ZM517 633T487 663T456 741Q456
782 475 814T527 864T599 882Q647 882 677 852T707 774Q707 733 688 701T637 651T565 633Q517 633 487 663ZM599 708T615 724T632 765Q632 784 620 795T589 806Q565 806 549 791T532 751Q532 732 544 720T575 708Q599 708 615 724Z" />
<glyph unicode="&#xe6;" glyph-name="ae" horiz-adv-x="904" d="M480 255Q478 225 478 209Q478 139 508 106T590 73Q624 73 649 83T691 110T733 154Q742 165 755 165Q782 165 827 128Q750 -12 580 -12Q523 -12 476 8T399 66Q358 29 306 9T180 -12Q103 -12 55 30T6
140Q6 248 101 288T367 327Q374 380 374 393Q374 431 350 451T282 471Q245 471 217 460T146 422L122 407Q115 402 108 402Q93 402 79 422T55 476Q105 513 167 536T299 560Q354 560 397 544T466 495Q541 560 650 560Q855 560 855 353Q855 304 840 255H480ZM580 479T544
437T491 327H735Q738 350 738 371Q738 422 713 450T636 479Q580 479 544 437ZM301 71T359 156Q354 184 354 210Q354 225 356 253Q243 251 187 225T131 144Q131 112 151 92T208 71Q301 71 359 156Z" />
<glyph unicode="&#xe7;" glyph-name="ccedilla" horiz-adv-x="567" d="M475 194T475 128Q475 73 421 35T281 -9L236 -52H245Q284 -52 309 -71T334 -124Q334 -178 292 -207T185 -236Q136 -236 114 -224T91 -192Q91 -179 98 -166Q109 -171 131 -174T180 -177Q210
-177 226 -166T243 -134Q243 -108 208 -108Q192 -108 175 -114L150 -75L206 -7Q113 6 62 66T10 226Q10 329 45 404T148 520T306 560Q405 560 462 511T519 376Q490 362 473 357T440 351Q426 351 419 360T408 389Q396 478 302 478Q221 478 178 415T134 231Q134 157
166 116T257 75Q308 75 340 102T401 194Q475 194 475 128Z" />
<glyph unicode="&#xe8;" glyph-name="egrave" horiz-adv-x="573" d="M145 255Q144 245 144 225Q144 154 174 115T260 75Q305 75 336 91T399 149Q408 161 421 161Q434 161 453 151T493 124Q422 -10 250 -10Q181 -10 129 19T49 100T20 222Q20 327 55 403T157 519T315
560Q422 560 473 509T525 352Q525 308 515 255H145ZM250 479T211 440T154 329H405Q408 350 408 372Q408 479 310 479Q250 479 211 440ZM455 776H591L643 625H552L455 776Z" />
<glyph unicode="&#xe9;" glyph-name="eacute" horiz-adv-x="573" d="M145 255Q144 245 144 225Q144 154 174 115T260 75Q305 75 336 91T399 149Q408 161 421 161Q434 161 453 151T493 124Q422 -10 250 -10Q181 -10 129 19T49 100T20 222Q20 327 55 403T157 519T315
560Q422 560 473 509T525 352Q525 308 515 255H145ZM250 479T211 440T154 329H405Q408 350 408 372Q408 479 310 479Q250 479 211 440ZM364 776H503L366 625H259L364 776Z" />
<glyph unicode="&#xea;" glyph-name="ecircumflex" horiz-adv-x="573" d="M145 255Q144 245 144 225Q144 154 174 115T260 75Q305 75 336 91T399 149Q408 161 421 161Q434 161 453 151T493 124Q422 -10 250 -10Q181 -10 129 19T49 100T20 222Q20 327 55 403T157
519T315 560Q422 560 473 509T525 352Q525 308 515 255H145ZM250 479T211 440T154 329H405Q408 350 408 372Q408 479 310 479Q250 479 211 440ZM538 772H664L741 625H652L594 708L511 625H418L538 772Z" />
<glyph unicode="&#xeb;" glyph-name="edieresis" horiz-adv-x="573" d="M145 255Q144 245 144 225Q144 154 174 115T260 75Q305 75 336 91T399 149Q408 161 421 161Q434 161 453 151T493 124Q422 -10 250 -10Q181 -10 129 19T49 100T20 222Q20 327 55 403T157
519T315 560Q422 560 473 509T525 352Q525 308 515 255H145ZM250 479T211 440T154 329H405Q408 350 408 372Q408 479 310 479Q250 479 211 440ZM170 640T170 685Q170 694 171 698L173 710Q181 768 239 768H250Q301 768 301 722Q301 714 300 710L298 698Q291 640
232 640H221Q170 640 170 685ZM371 640T371 685Q371 694 372 698L374 710Q378 738 394 753T440 768H451Q502 768 502 724Q502 715 501 710L500 698Q491 640 433 640H423Q371 640 371 685Z" />
<glyph unicode="&#xec;" glyph-name="igrave" horiz-adv-x="288" d="M103 550H225L148 0H26L103 550ZM307 776H443L495 625H404L307 776Z" />
<glyph unicode="&#xed;" glyph-name="iacute" horiz-adv-x="288" d="M103 550H225L148 0H26L103 550ZM215 776H354L217 625H110L215 776Z" />
<glyph unicode="&#xee;" glyph-name="icircumflex" horiz-adv-x="288" d="M103 550H225L148 0H26L103 550ZM389 772H515L592 625H503L445 708L362 625H269L389 772Z" />
<glyph unicode="&#xef;" glyph-name="idieresis" horiz-adv-x="288" d="M103 550H225L148 0H26L103 550ZM21 640T21 685Q21 694 22 698L24 710Q32 768 90 768H101Q152 768 152 722Q152 714 151 710L149 698Q142 640 83 640H72Q21 640 21 685ZM222 640T222 685Q222
694 223 698L225 710Q229 738 245 753T291 768H302Q353 768 353 724Q353 715 352 710L351 698Q342 640 284 640H274Q222 640 222 685Z" />
<glyph unicode="&#xf0;" glyph-name="eth" horiz-adv-x="587" d="M484 620T511 539T538 370Q538 191 468 90T248 -12Q136 -12 76 49T16 210Q16 307 49 383T148 503T306 547Q348 547 381 532Q358 586 327 627L237 575L204 633L282 679Q252 709 218 734L313 801Q354
772 386 740L480 795L513 736L431 688Q484 620 511 539ZM334 69T371 140T409 326Q409 392 383 429T302 466Q216 466 177 395T138 208Q138 69 250 69Q334 69 371 140Z" />
<glyph unicode="&#xf1;" glyph-name="ntilde" horiz-adv-x="610" d="M532 560T532 420Q532 406 528 372L495 135Q487 77 487 57Q487 37 494 14Q443 -5 392 -5Q377 -5 371 6T364 43Q364 62 369 102L406 366Q409 387 409 403Q409 440 392 456T338 473Q273 473 192
410L134 0H13L65 368Q78 468 78 508Q78 520 76 534Q139 554 177 554Q205 554 205 516Q205 504 204 496L202 484Q258 526 299 543T383 560Q532 560 532 420ZM470 638T457 650T444 683Q444 722 473 743T542 765Q564 765 579 760T614 743Q630 735 639 731T662 727Q684
727 694 737T709 768Q736 768 749 759T763 727Q763 692 735 666T667 640Q644 640 628 645T592 661Q573 670 563 673T539 677Q503 677 493 638Q470 638 457 650Z" />
<glyph unicode="&#xf2;" glyph-name="ograve" horiz-adv-x="561" d="M122 -10T66 46T9 209Q9 316 44 395T143 517T295 560Q401 560 457 505T514 344Q514 237 479 157T380 34T228 -10Q122 -10 66 46ZM308 73T350 146T392 347Q392 477 291 477Q216 477 174 405T132
204Q132 137 157 105T234 73Q308 73 350 146ZM443 776H579L631 625H540L443 776Z" />
<glyph unicode="&#xf3;" glyph-name="oacute" horiz-adv-x="561" d="M122 -10T66 46T9 209Q9 316 44 395T143 517T295 560Q401 560 457 505T514 344Q514 237 479 157T380 34T228 -10Q122 -10 66 46ZM308 73T350 146T392 347Q392 477 291 477Q216 477 174 405T132
204Q132 137 157 105T234 73Q308 73 350 146ZM352 776H491L354 625H247L352 776Z" />
<glyph unicode="&#xf4;" glyph-name="ocircumflex" horiz-adv-x="561" d="M122 -10T66 46T9 209Q9 316 44 395T143 517T295 560Q401 560 457 505T514 344Q514 237 479 157T380 34T228 -10Q122 -10 66 46ZM308 73T350 146T392 347Q392 477 291 477Q216 477 174
405T132 204Q132 137 157 105T234 73Q308 73 350 146ZM526 772H652L729 625H640L582 708L499 625H406L526 772Z" />
<glyph unicode="&#xf5;" glyph-name="otilde" horiz-adv-x="561" d="M122 -10T66 46T9 209Q9 316 44 395T143 517T295 560Q401 560 457 505T514 344Q514 237 479 157T380 34T228 -10Q122 -10 66 46ZM308 73T350 146T392 347Q392 477 291 477Q216 477 174 405T132
204Q132 137 157 105T234 73Q308 73 350 146ZM446 638T433 650T420 683Q420 722 449 743T518 765Q540 765 555 760T590 743Q606 735 615 731T638 727Q660 727 670 737T685 768Q712 768 725 759T739 727Q739 692 711 666T643 640Q620 640 604 645T568 661Q549 670
539 673T515 677Q479 677 469 638Q446 638 433 650Z" />
<glyph unicode="&#xf6;" glyph-name="odieresis" horiz-adv-x="561" d="M122 -10T66 46T9 209Q9 316 44 395T143 517T295 560Q401 560 457 505T514 344Q514 237 479 157T380 34T228 -10Q122 -10 66 46ZM308 73T350 146T392 347Q392 477 291 477Q216 477 174 405T132
204Q132 137 157 105T234 73Q308 73 350 146ZM158 640T158 685Q158 694 159 698L161 710Q169 768 227 768H238Q289 768 289 722Q289 714 288 710L286 698Q279 640 220 640H209Q158 640 158 685ZM359 640T359 685Q359 694 360 698L362 710Q366 738 382 753T428 768H439Q490
768 490 724Q490 715 489 710L488 698Q479 640 421 640H411Q359 640 359 685Z" />
<glyph unicode="&#xf7;" glyph-name="divide" horiz-adv-x="600" d="M271 459T256 476T244 520Q248 545 268 562T313 579Q337 579 352 565T367 529Q367 499 346 479T296 459Q271 459 256 476ZM63 361H523L513 287H53L63 361ZM219 73T204 87T189 123Q189 152 210
173T259 194Q285 194 300 176T312 132Q308 107 288 90T242 73Q219 73 204 87Z" />
<glyph unicode="&#xf8;" glyph-name="oslash" horiz-adv-x="561" d="M477 481Q514 429 514 344Q514 237 479 157T380 34T228 -10Q135 -10 80 33L50 0H-27L41 77Q9 129 9 209Q9 316 44 395T143 517T295 560Q383 560 436 522L461 550H538L477 481ZM132 188T133 180L367
444Q342 477 291 477Q216 477 174 405T132 204Q132 188 133 180ZM392 361T390 383L151 114Q174 73 234 73Q308 73 350 146T392 347Q392 361 390 383Z" />
<glyph unicode="&#xf9;" glyph-name="ugrave" horiz-adv-x="623" d="M504 126Q498 81 498 55Q498 34 503 14Q465 -5 419 -5Q393 -5 383 9T374 61Q342 27 297 9T200 -10Q122 -10 82 27T41 136Q41 156 44 177L97 550H218L166 182Q163 164 163 148Q163 108 182 90T240
71Q322 71 386 152L441 550H564L504 126ZM474 776H610L662 625H571L474 776Z" />
<glyph unicode="&#xfa;" glyph-name="uacute" horiz-adv-x="623" d="M504 126Q498 81 498 55Q498 34 503 14Q465 -5 419 -5Q393 -5 383 9T374 61Q342 27 297 9T200 -10Q122 -10 82 27T41 136Q41 156 44 177L97 550H218L166 182Q163 164 163 148Q163 108 182 90T240
71Q322 71 386 152L441 550H564L504 126ZM383 776H522L385 625H278L383 776Z" />
<glyph unicode="&#xfb;" glyph-name="ucircumflex" horiz-adv-x="623" d="M504 126Q498 81 498 55Q498 34 503 14Q465 -5 419 -5Q393 -5 383 9T374 61Q342 27 297 9T200 -10Q122 -10 82 27T41 136Q41 156 44 177L97 550H218L166 182Q163 164 163 148Q163 108 182
90T240 71Q322 71 386 152L441 550H564L504 126ZM557 772H683L760 625H671L613 708L530 625H437L557 772Z" />
<glyph unicode="&#xfc;" glyph-name="udieresis" horiz-adv-x="623" d="M504 126Q498 81 498 55Q498 34 503 14Q465 -5 419 -5Q393 -5 383 9T374 61Q342 27 297 9T200 -10Q122 -10 82 27T41 136Q41 156 44 177L97 550H218L166 182Q163 164 163 148Q163 108 182
90T240 71Q322 71 386 152L441 550H564L504 126ZM189 640T189 685Q189 694 190 698L192 710Q200 768 258 768H269Q320 768 320 722Q320 714 319 710L317 698Q310 640 251 640H240Q189 640 189 685ZM390 640T390 685Q390 694 391 698L393 710Q397 738 413 753T459
768H470Q521 768 521 724Q521 715 520 710L519 698Q510 640 452 640H442Q390 640 390 685Z" />
<glyph unicode="&#xfd;" glyph-name="yacute" horiz-adv-x="518" d="M537 550L241 -42Q195 -133 146 -170T23 -207Q-21 -207 -46 -191T-71 -145Q-71 -113 -43 -93Q-20 -110 19 -110Q58 -110 86 -83T144 9L24 550H147L224 157L410 550H537ZM331 776H470L333 625H226L331
776Z" />
<glyph unicode="&#xfe;" glyph-name="thorn" horiz-adv-x="609" d="M451 560T502 510T553 352Q553 323 548 276Q527 133 448 61T254 -12Q195 -12 139 12L106 -225H-16L125 784H247L208 503Q272 560 361 560Q451 560 502 510ZM430 334T430 352Q430 419 405 449T332
479Q295 479 259 462T196 416L151 96Q199 71 249 71Q319 71 363 119T424 276Q430 334 430 352Z" />
<glyph unicode="&#xff;" glyph-name="ydieresis" horiz-adv-x="518" d="M537 550L241 -42Q195 -133 146 -170T23 -207Q-21 -207 -46 -191T-71 -145Q-71 -113 -43 -93Q-20 -110 19 -110Q58 -110 86 -83T144 9L24 550H147L224 157L410 550H537ZM137 640T137 685Q137
694 138 698L140 710Q148 768 206 768H217Q268 768 268 722Q268 714 267 710L265 698Q258 640 199 640H188Q137 640 137 685ZM338 640T338 685Q338 694 339 698L341 710Q345 738 361 753T407 768H418Q469 768 469 724Q469 715 468 710L467 698Q458 640 400 640H390Q338
640 338 685Z" />
<glyph unicode="&#x2013;" glyph-name="endash" horiz-adv-x="623" d="M41 344H564L554 270H31L41 344Z" />
<glyph unicode="&#x2014;" glyph-name="emdash" horiz-adv-x="1100" d="M41 344H1041L1031 270H31L41 344Z" />
<glyph unicode="&#x2018;" glyph-name="quoteleft" horiz-adv-x="243" d="M314 710T294 685T264 629H272Q297 629 311 615T325 577Q325 569 324 564L322 547Q317 518 298 500T250 482H232Q205 482 190 496T175 538Q175 547 176 552L179 568Q185 610 202 644T250
718Q287 765 315 765Q339 765 355 749Q314 710 294 685Z" />
<glyph unicode="&#x2019;" glyph-name="quoteright" horiz-adv-x="243" d="M225 802T240 788T255 746Q255 737 254 732L251 716Q245 674 228 640T180 566Q143 519 115 519Q91 519 75 535Q116 574 136 599T166 655H158Q133 655 119 669T105 707Q105 715 106 720L108
737Q113 766 132 784T180 802H198Q225 802 240 788Z" />
<glyph unicode="&#x201a;" glyph-name="quotesinglbase" horiz-adv-x="263" d="M132 143T147 129T162 87Q162 78 161 73L158 57Q152 15 135 -19T87 -93Q50 -140 22 -140Q-2 -140 -18 -124Q23 -85 43 -60T73 -4H65Q40 -4 26 10T12 48Q12 56 13 61L15 78Q20 107
39 125T87 143H105Q132 143 147 129Z" />
<glyph unicode="&#x201c;" glyph-name="quotedblleft" horiz-adv-x="447" d="M283 743T298 754T328 765Q352 765 368 749Q327 710 307 685T278 629H286Q310 629 324 615T338 577Q338 569 337 564L336 547Q331 518 312 500T263 482H245Q219 482 204 496T189 538Q189
547 190 552L192 568Q198 610 215 644T263 718Q283 743 298 754ZM511 711T491 686T461 629H469Q494 629 508 615T522 577Q522 569 521 564L519 547Q514 518 495 500T447 482H429Q402 482 387 496T372 538Q372 547 373 552L376 568Q382 611 398 645T446 718Q466
742 481 753T512 765Q535 765 551 749Q511 711 491 686Z" />
<glyph unicode="&#x201d;" glyph-name="quotedblright" horiz-adv-x="447" d="M408 802T423 788T438 746Q438 737 437 732L434 716Q428 674 411 640T363 566Q326 519 298 519Q274 519 258 535Q299 574 319 599T349 655H341Q316 655 302 669T288 707Q288 715 289
720L291 737Q296 766 315 784T363 802H381Q408 802 423 788ZM225 802T240 788T255 746Q255 737 254 732L251 716Q245 674 228 640T180 566Q143 519 115 519Q91 519 75 535Q116 574 136 599T166 655H158Q133 655 119 669T105 707Q105 715 106 720L108 737Q113 766
132 784T180 802H198Q225 802 240 788Z" />
<glyph unicode="&#x201e;" glyph-name="quotedblbase" horiz-adv-x="447" d="M315 143T330 129T345 87Q345 78 344 73L341 57Q335 15 318 -19T270 -93Q233 -140 205 -140Q181 -140 165 -124Q206 -85 226 -60T256 -4H248Q223 -4 209 10T195 48Q195 56 196 61L198
78Q203 107 222 125T270 143H288Q315 143 330 129ZM132 143T147 129T162 87Q162 78 161 73L158 57Q152 15 135 -19T87 -93Q50 -140 22 -140Q-2 -140 -18 -124Q23 -85 43 -60T73 -4H65Q40 -4 26 10T12 48Q12 56 13 61L15 78Q20 107 39 125T87 143H105Q132 143 147
129Z" />
<glyph unicode="&#x2022;" glyph-name="bullet" horiz-adv-x="560" d="M179 197T137 238T94 347Q94 406 121 454T196 529T301 557Q372 557 415 515T458 405Q458 347 430 299T354 224T250 197Q179 197 137 238Z" />
<glyph unicode="&#x2039;" glyph-name="guilsinglleft" horiz-adv-x="340" d="M26 288L177 452H293L151 288L246 117H130L26 288Z" />
<glyph unicode="&#x203a;" glyph-name="guilsinglright" horiz-adv-x="340" d="M314 281L163 117H47L189 281L94 452H210L314 281Z" />
</font>
</defs>
</svg>
