<?xml version="1.0" standalone="no"?>
<!DOCTYPE svg PUBLIC "-//W3C//DTD SVG 1.1//EN" "http://www.w3.org/Graphics/SVG/1.1/DTD/svg11.dtd">
<svg xmlns="http://www.w3.org/2000/svg">
<defs >
<font id="Krub" horiz-adv-x="557" ><font-face
    font-family="Krub Light"
    units-per-em="1000"
    panose-1="0 0 4 0 0 0 0 0 0 0"
    ascent="1007"
    descent="-293"
    alphabetic="0" />
<glyph unicode=" " glyph-name="space" horiz-adv-x="258" />
<glyph unicode="!" glyph-name="exclam" horiz-adv-x="246" d="M132 700H197L117 206H73L132 700ZM25 0T30 38L31 46Q37 84 74 84H81Q114 84 114 55Q114 49 113 46L112 38Q107 0 70 0H63Q25 0 30 38Z" />
<glyph unicode="&quot;" glyph-name="quotedbl" horiz-adv-x="324" d="M108 737H169L127 505H86L108 737ZM247 737H308L266 505H225L247 737Z" />
<glyph unicode="#" glyph-name="numbersign" horiz-adv-x="540" d="M413 443L357 255H468L462 215H345L280 0H237L302 215H152L87 0H44L109 215H-2L4 255H121L177 443H56L62 483H189L254 700H297L232 483H382L447 700H490L425 483H526L520 443H413ZM370 443H220L164
255H314L370 443Z" />
<glyph unicode="$" glyph-name="dollar" horiz-adv-x="609" d="M405 367T447 343T508 286T527 206Q527 109 460 52T272 -10L257 -120H205L221 -9Q158 -5 108 15T30 67T2 138Q2 160 14 172T49 186Q53 124 100 85T227 41L271 348Q168 375 121 418T74 529Q74 612
141 661T321 710L335 809H387L373 707Q450 696 499 654T558 549Q545 536 526 536Q515 536 508 542T495 563Q465 643 366 658L328 389Q405 367 447 343ZM133 483T165 455T278 403L314 662Q227 661 180 627T133 530Q133 483 165 455ZM368 47T417 88T467 198Q467 235
454 259T409 301T321 335L280 41Q368 47 417 88Z" />
<glyph unicode="%" glyph-name="percent" horiz-adv-x="860" d="M643 710H695L200 -10H148L643 710ZM178 362T142 400T105 505Q105 590 151 645T274 700Q336 700 371 663T407 561Q407 474 364 418T237 362Q178 362 142 400ZM298 405T328 447T359 559Q359 657 271
657Q214 657 184 615T153 507Q153 458 176 432T240 405Q298 405 328 447ZM510 0T474 38T437 143Q437 228 483 283T606 338Q668 338 703 301T739 199Q739 112 696 56T569 0Q510 0 474 38ZM630 43T660 85T691 197Q691 295 603 295Q546 295 516 253T485 145Q485 96
508 70T572 43Q630 43 660 85Z" />
<glyph unicode="&amp;" glyph-name="ampersand" horiz-adv-x="687" d="M480 53T503 45T563 35L561 16Q559 1 549 -4T516 -10Q489 -10 465 4T411 52Q319 -10 208 -10Q117 -10 61 34T5 157Q5 215 26 255T86 324T189 387Q146 470 146 537Q146 616 195 663T322 710Q383
710 421 677T459 590Q459 542 433 505T365 438T256 372Q286 318 336 241T420 121Q463 164 490 222T525 348Q542 348 553 339T565 311Q565 256 535 195T451 84Q480 53 503 45ZM267 665T233 630T199 537Q199 485 235 411Q321 454 363 493T405 589Q405 624 383 644T319
665Q267 665 233 630ZM58 101T100 68T208 35Q305 35 381 89Q338 147 289 221T210 348Q157 319 126 296T77 239T58 160Q58 101 100 68Z" />
<glyph unicode="&apos;" glyph-name="quotesingle" horiz-adv-x="223" d="M130 737H186L146 505H106L130 737Z" />
<glyph unicode="(" glyph-name="parenleft" horiz-adv-x="390" d="M69 73T69 280Q69 602 304 854H363Q247 727 187 582T126 283Q126 180 150 87T229 -96H170Q69 73 69 280Z" />
<glyph unicode=")" glyph-name="parenright" horiz-adv-x="390" d="M321 685T321 478Q321 156 86 -96H27Q144 31 204 176T265 475Q265 578 241 670T161 854H220Q321 685 321 478Z" />
<glyph unicode="*" glyph-name="asterisk" horiz-adv-x="618" d="M190 558L330 701L151 742L179 797L341 732L352 912H411L373 732L554 797L566 742L374 701L474 558L422 526L350 683L234 526L190 558Z" />
<glyph unicode="+" glyph-name="plus" horiz-adv-x="600" d="M261 302H35L41 347H267L299 568H348L316 347H541L535 302H310L279 80H230L261 302Z" />
<glyph unicode="," glyph-name="comma" horiz-adv-x="308" d="M127 84T136 76T145 51Q145 37 142 25Q133 -32 89 -88Q72 -110 62 -118T41 -126Q30 -126 19 -115Q49 -86 67 -60T95 0H92Q78 0 70 8T61 31L63 55Q69 84 102 84H112Q127 84 136 76Z" />
<glyph unicode="-" glyph-name="hyphen" horiz-adv-x="480" d="M48 324H408L402 277H42L48 324Z" />
<glyph unicode="." glyph-name="period" horiz-adv-x="308" d="M56 0T61 38L62 46Q68 84 105 84H112Q145 84 145 55Q145 49 144 46L143 38Q138 0 101 0H94Q56 0 61 38Z" />
<glyph unicode="/" glyph-name="slash" horiz-adv-x="334" d="M349 811H401L-23 -55H-75L349 811Z" />
<glyph unicode="0" glyph-name="zero" horiz-adv-x="620" d="M143 -12T88 54T33 244Q33 292 40 338Q65 516 145 613T352 710Q459 710 513 641T568 443Q568 399 560 338Q536 171 457 80T251 -12Q143 -12 88 54ZM360 38T423 115T506 338Q514 397 514 440Q514 548
472 604T346 660Q243 660 180 578T94 338Q88 290 88 248Q88 145 130 92T258 38Q360 38 423 115Z" />
<glyph unicode="1" glyph-name="one" horiz-adv-x="459" d="M331 45L325 0H21L27 45H158L239 624Q210 599 172 581T106 562Q90 562 82 569T73 591Q73 599 74 603Q123 607 174 631T270 700H301L209 45H331Z" />
<glyph unicode="2" glyph-name="two" horiz-adv-x="537" d="M492 436T438 356T309 210T104 49H421L414 0H-5L-2 26L33 52Q171 153 250 219T383 362T437 520Q437 583 402 617T303 652Q225 652 179 612T117 488Q78 488 78 521Q78 572 108 612T191 676T306 700Q389
700 440 653T492 522Q492 436 438 356Z" />
<glyph unicode="3" glyph-name="three" horiz-adv-x="549" d="M397 340T426 305T455 212Q455 141 421 91T329 16T198 -9Q134 -9 87 4T16 38T-9 79Q-9 104 12 112Q42 77 86 58T200 38Q257 38 303 58T375 117T402 207Q402 266 364 299T262 332L229 331Q207 329 194
329Q184 329 176 343T167 368Q167 376 175 376H265Q341 376 389 419T437 531Q437 590 398 621T285 653Q223 653 176 624T101 537Q88 537 80 544T72 564Q72 592 101 624T180 678T289 700Q377 700 433 656T489 531Q489 464 452 418T351 355Q397 340 426 305Z" />
<glyph unicode="4" glyph-name="four" horiz-adv-x="522" d="M298 173H-9L-6 199Q113 337 181 456T271 700Q283 702 287 702Q316 702 316 669Q316 613 277 530T180 363T71 221H305L337 452H389L357 221H470L463 173H350L326 0H274L298 173Z" />
<glyph unicode="5" glyph-name="five" horiz-adv-x="556" d="M386 453T439 403T492 268Q492 191 458 128T363 28T226 -9Q170 -9 126 8T58 52T34 106Q34 144 71 150Q83 99 124 69T234 39Q296 39 342 69T412 150T436 266Q436 334 398 369T288 405Q240 405 195 383T114
320L76 327L152 700H497L491 652H193L142 401Q206 453 298 453Q386 453 439 403Z" />
<glyph unicode="6" glyph-name="six" horiz-adv-x="577" d="M383 449T436 394T489 247Q489 173 458 115T370 25T238 -7Q136 -7 82 60T28 233Q28 346 84 456T234 635T433 705Q478 705 475 659Q393 659 320 623T192 524T108 386Q143 414 191 431T294 449Q383 449
436 394ZM332 42T384 97T437 246Q437 321 397 361T287 401Q230 401 179 378T88 313Q80 273 80 236Q80 150 121 96T242 42Q332 42 384 97Z" />
<glyph unicode="7" glyph-name="seven" horiz-adv-x="482" d="M497 700L493 672Q354 488 285 350T189 72L175 0H151Q121 0 121 30Q121 39 122 44L128 79Q150 207 231 359T429 653L121 652Q85 652 88 678Q88 687 93 700H497Z" />
<glyph unicode="8" glyph-name="eight" horiz-adv-x="564" d="M422 334T452 290T483 192Q483 91 412 41T223 -9Q161 -9 114 13T42 74T17 162Q17 242 63 289T199 363Q143 388 115 427T87 515Q87 575 118 618T203 683T324 705Q380 705 422 684T486 625T508 541Q508
469 470 428T356 360Q422 334 452 290ZM143 468T179 434T282 382Q368 403 411 438T455 541Q455 594 418 626T318 658Q239 658 191 621T143 516Q143 468 179 434ZM316 39T371 77T427 191Q427 242 391 278T274 338Q176 313 125 274T73 162Q73 107 117 73T231 39Q316
39 371 77Z" />
<glyph unicode="9" glyph-name="nine" horiz-adv-x="577" d="M417 700T468 637T519 472Q519 351 464 239T318 59T124 -10Q103 -10 93 -1T83 23Q83 27 85 37Q165 37 235 72T356 168T436 307Q403 281 355 263T254 245Q162 245 110 297T57 441Q57 515 90 574T183
666T315 700Q417 700 468 637ZM318 294T368 316T457 379Q466 426 466 473Q466 554 427 602T307 651Q248 651 203 624T134 550T109 442Q109 367 150 331T261 294Q318 294 368 316Z" />
<glyph unicode=":" glyph-name="colon" horiz-adv-x="324" d="M107 362T112 400L113 408Q119 446 156 446H163Q196 446 196 417Q196 411 195 408L194 400Q189 362 152 362H145Q107 362 112 400ZM56 0T61 38L62 46Q68 84 105 84H112Q145 84 145 55Q145 49 144 46L143
38Q138 0 101 0H94Q56 0 61 38Z" />
<glyph unicode=";" glyph-name="semicolon" horiz-adv-x="324" d="M127 84T136 76T145 51Q145 37 142 25Q133 -32 89 -88Q72 -110 62 -118T41 -126Q30 -126 19 -115Q49 -86 67 -60T95 0H92Q78 0 70 8T61 31L63 55Q69 84 102 84H112Q127 84 136 76ZM107 362T112
400L113 408Q119 446 156 446H163Q196 446 196 417Q196 411 195 408L194 400Q189 362 152 362H145Q107 362 112 400Z" />
<glyph unicode="&lt;" glyph-name="less" horiz-adv-x="600" d="M606 8L68 282L62 326L523 598L532 538L130 304L598 68L606 8Z" />
<glyph unicode="=" glyph-name="equal" horiz-adv-x="600" d="M77 458H537L531 411H71L77 458ZM48 254H508L502 207H42L48 254Z" />
<glyph unicode="&gt;" glyph-name="greater" horiz-adv-x="600" d="M539 326L533 282L-6 8L2 68L470 304L68 538L77 598L539 326Z" />
<glyph unicode="?" glyph-name="question" horiz-adv-x="475" d="M168 229Q175 280 206 315T296 394L313 407Q361 443 383 474T406 551Q406 602 372 631T275 660Q209 660 167 627T100 534L54 558Q82 627 139 668T279 709Q360 709 410 668T460 551Q460 495 432
456T346 373Q339 368 302 341T244 284T218 220L214 189H162L168 229ZM124 0T127 33Q127 43 129 49Q132 67 142 75T171 84H178Q213 84 211 52Q211 43 209 37Q205 0 167 0H160Q124 0 127 33Z" />
<glyph unicode="@" glyph-name="at" horiz-adv-x="834" d="M515 143T498 158T480 201V203Q461 176 429 160T356 143Q297 143 265 177T233 272Q233 340 260 401T335 501T446 539Q487 539 513 522T551 475L565 523H613L537 270Q532 255 528 238T524 211Q524 186
553 186Q601 186 641 227T705 330T728 450Q728 518 696 568T605 646T471 674Q369 674 286 623T155 483T107 290Q107 206 142 146T242 54T391 23Q462 23 513 41T614 92Q625 81 624 67Q623 48 589 28T500 -6T385 -20Q234 -20 147 58T59 280Q59 402 113 502T263 659T475
717Q566 717 634 685T738 593T775 455Q775 379 745 307T662 189T543 143Q515 143 498 158ZM409 183T444 217T499 306T519 413Q519 455 499 477T440 500Q394 500 359 466T306 378T287 271Q287 183 364 183Q409 183 444 217Z" />
<glyph unicode="A" glyph-name="A" horiz-adv-x="620" d="M483 105T468 203H95Q54 107 17 0H-42Q31 206 119 374T324 700H379Q451 544 491 376T548 0H489Q483 105 468 203ZM460 253Q423 467 343 640Q216 469 117 253H460Z" />
<glyph unicode="B" glyph-name="B" horiz-adv-x="615" d="M489 340T516 302T544 211Q544 107 476 54T274 0H29L127 700H357Q451 700 504 658T557 538Q557 473 525 423T440 354Q489 340 516 302ZM499 593T461 621T350 650H177L138 376H319Q410 376 454 415T499
537Q499 593 461 621ZM384 50T435 88T487 211Q487 273 447 300T316 328H132L93 50H271Q384 50 435 88Z" />
<glyph unicode="C" glyph-name="C" horiz-adv-x="596" d="M175 -10T106 62T37 267Q37 402 79 502T199 656T382 710Q443 710 494 690T577 633Q570 619 560 611T541 602Q530 602 518 611Q458 658 380 658Q295 658 231 611T132 475T97 270Q97 160 150 102T304 43Q409
43 476 109Q487 108 493 102T499 85Q499 62 471 40T396 4T300 -10Q175 -10 106 62Z" />
<glyph unicode="D" glyph-name="D" horiz-adv-x="672" d="M463 700T538 626T613 417Q613 291 568 197T440 51T246 0H29L127 700H329Q463 700 538 626ZM339 50T409 94T516 220T554 416Q554 529 496 589T327 650H177L93 50H243Q339 50 409 94Z" />
<glyph unicode="E" glyph-name="E" horiz-adv-x="560" d="M177 650L140 388H453L447 338H133L93 50H455Q450 21 441 11T408 0H29L127 700H545L538 650H177Z" />
<glyph unicode="F" glyph-name="F" horiz-adv-x="530" d="M177 650L140 383H452L445 333H133L86 0H29L127 700H539L532 650H177Z" />
<glyph unicode="G" glyph-name="G" horiz-adv-x="666" d="M311 659T244 612T142 480T107 284Q107 162 165 102T324 42Q384 42 429 57T504 99L534 317H375Q359 317 353 324T347 348Q347 359 349 368H599L557 72Q519 36 458 13T323 -10Q195 -10 122 65T48 284Q48
411 90 507T215 656T411 710Q484 710 543 687T631 623Q611 594 594 594Q580 594 569 604Q540 630 502 644T408 659Q311 659 244 612Z" />
<glyph unicode="H" glyph-name="H" horiz-adv-x="680" d="M635 700L537 0H479L527 340H135L87 0H29L127 700H185L141 389H533L577 700H635Z" />
<glyph unicode="I" glyph-name="I" horiz-adv-x="350" d="M188 700H245L147 0H90L188 700Z" />
<glyph unicode="J" glyph-name="J" horiz-adv-x="427" d="M51 -10T19 -2T-31 17Q-29 37 -21 48T-3 60Q4 60 19 54Q23 53 46 47T98 40Q232 40 250 183L323 700H380L307 183Q295 93 238 42T88 -10Q51 -10 19 -2Z" />
<glyph unicode="K" glyph-name="K" horiz-adv-x="610" d="M353 346T383 288L528 3Q511 -8 492 -8Q478 -8 470 -2T453 22L331 269Q317 297 303 310T268 329T209 335H147L100 0H43L141 700H198L154 385H234Q244 385 264 383L550 700H618L314 368Q353 346 383 288Z" />
<glyph unicode="L" glyph-name="L" horiz-adv-x="513" d="M448 49L441 0H29L127 700H184L93 49H448Z" />
<glyph unicode="M" glyph-name="M" horiz-adv-x="829" d="M722 597T722 500Q722 286 696 0H639Q666 299 666 525Q666 587 665 615Q594 495 531 371T391 75H349Q322 224 292 351T222 615Q178 474 140 313T76 0H19Q53 197 98 379T191 700H251Q301 541 331 426T384
188Q436 306 496 420T655 700H715Q722 597 722 500Z" />
<glyph unicode="N" glyph-name="N" horiz-adv-x="690" d="M641 700L562 137Q550 59 550 27Q550 15 542 8T521 0H486L494 64Q496 84 496 90Q496 123 474 159L173 621L86 0H29L127 700H174Q184 700 189 697T201 684L514 203L584 700H641Z" />
<glyph unicode="O" glyph-name="O" horiz-adv-x="680" d="M167 -10T100 66T33 277Q33 408 75 506T196 657T379 710Q498 710 564 636T631 430Q631 293 590 194T472 43T287 -10Q167 -10 100 66ZM378 42T441 88T538 220T572 426Q572 537 520 597T373 658Q288 658
225 612T127 480T92 279Q92 166 144 104T291 42Q378 42 441 88Z" />
<glyph unicode="P" glyph-name="P" horiz-adv-x="615" d="M585 700T585 502Q585 381 510 316T295 251H121L86 0H29L127 700H340Q585 700 585 502ZM527 302T527 502Q527 578 480 613T333 649H177L128 302H287Q527 302 527 502Z" />
<glyph unicode="Q" glyph-name="Q" horiz-adv-x="680" d="M631 270T575 162T416 13Q448 -39 464 -62Q457 -71 446 -76T422 -82Q400 -82 386 -56Q362 -11 358 -3Q327 -10 287 -10Q167 -10 100 66T33 277Q33 408 75 506T196 657T379 710Q498 710 564 636T631 430Q631
270 575 162ZM476 93T524 188T572 426Q572 537 520 597T373 658Q288 658 225 612T127 480T92 279Q92 166 144 104T291 42Q314 42 333 45L281 149H341L389 59Q476 93 524 188Z" />
<glyph unicode="R" glyph-name="R" horiz-adv-x="629" d="M400 274T417 238L528 3Q511 -8 492 -8Q478 -8 469 -2T453 22L361 217Q340 263 309 280T216 297H128L86 0H29L127 700H354Q467 700 527 657T588 531Q588 470 560 420T483 339T371 299Q400 274 417 238ZM300
347Q409 347 468 393T527 526Q527 649 347 649H177L135 347H300Z" />
<glyph unicode="S" glyph-name="S" horiz-adv-x="642" d="M210 -10T154 9T65 63T32 138Q32 160 44 172T79 186Q83 119 137 80T281 40Q381 40 439 82T497 198Q497 239 481 265T425 309T310 346Q202 373 153 416T104 529Q104 612 171 661T352 710Q449 710 513 667T588
549Q575 536 556 536Q545 536 538 542T525 563Q506 612 461 637T349 662Q260 662 212 628T163 530Q163 496 178 473T229 432T327 398Q417 374 466 349T536 291T557 206Q557 104 484 47T280 -10Q210 -10 154 9Z" />
<glyph unicode="T" glyph-name="T" horiz-adv-x="534" d="M563 688T561 679Q559 665 551 658T526 650H332L241 0H184L275 650H49L56 700H560Q563 688 561 679Z" />
<glyph unicode="U" glyph-name="U" horiz-adv-x="708" d="M177 -10T118 39T59 190Q59 214 64 251L127 700H184L121 246Q117 222 117 197Q117 117 163 79T305 40Q415 40 473 90T546 246L609 700H666L603 251Q584 117 510 54T297 -10Q177 -10 118 39Z" />
<glyph unicode="V" glyph-name="V" horiz-adv-x="638" d="M649 700Q528 310 293 0H233Q83 312 71 700H133Q141 343 271 61Q479 341 587 700H649Z" />
<glyph unicode="W" glyph-name="W" horiz-adv-x="856" d="M882 700Q840 552 777 397T599 0H537Q497 244 481 360T456 571Q419 469 366 344T215 0H153Q104 223 82 385T56 700H113Q117 449 194 78Q254 205 312 343T456 700H488Q520 455 539 324T580 78Q753 437 829
700H882Z" />
<glyph unicode="X" glyph-name="X" horiz-adv-x="582" d="M561 631T522 574T437 472T324 370Q378 311 413 262T473 148T501 0H439Q438 70 417 128T363 232T281 333Q182 249 121 175T29 0H-33Q-7 82 36 148T128 263T247 370Q196 427 163 472T107 574T80 700H140Q146
612 184 546T291 406Q380 481 436 546T524 700H584Q561 631 522 574Z" />
<glyph unicode="Y" glyph-name="Y" horiz-adv-x="590" d="M611 700L308 294L267 0H210L251 294L61 700H124L287 342L549 700H611Z" />
<glyph unicode="Z" glyph-name="Z" horiz-adv-x="580" d="M554 651L72 50H478L471 0H-3L4 50L490 650H86L93 700H561L554 651Z" />
<glyph unicode="[" glyph-name="bracketleft" horiz-adv-x="389" d="M168 842H366L360 799H217L99 -42H242L236 -85H38L168 842Z" />
<glyph unicode="\" glyph-name="backslash" horiz-adv-x="334" d="M357 -55L-67 811H-15L409 -55H357Z" />
<glyph unicode="]" glyph-name="bracketright" horiz-adv-x="389" d="M221 -85H23L29 -42H172L290 799H147L153 842H351L221 -85Z" />
<glyph unicode="^" glyph-name="asciicircum" horiz-adv-x="657" d="M356 791H405L583 324H526L371 731L107 324H50L356 791Z" />
<glyph unicode="_" glyph-name="underscore" horiz-adv-x="684" d="M-72 -102H612L606 -150H-79L-72 -102Z" />
<glyph unicode="`" glyph-name="grave" horiz-adv-x="243" d="M62 783H125L205 632H151L62 783Z" />
<glyph unicode="a" glyph-name="a" horiz-adv-x="558" d="M438 132Q433 97 433 81Q433 41 455 17Q449 9 437 2T415 -5Q397 -5 387 15T376 73L377 91Q338 44 285 17T169 -10Q99 -10 56 29T12 135Q12 233 111 283T412 341L416 373Q418 384 418 403Q418 457 387 485T293
514Q239 514 194 494T105 434Q100 429 91 429Q82 429 73 436T58 457Q108 506 169 533T300 560Q382 560 428 520T474 408Q474 391 471 373L438 132ZM294 36T386 159L405 295Q229 289 149 251T68 136Q68 89 96 63T176 36Q294 36 386 159Z" />
<glyph unicode="b" glyph-name="b" horiz-adv-x="610" d="M439 560T495 501T552 336Q552 234 520 156T424 34T272 -10Q217 -10 174 7T105 58Q97 32 87 16T65 0Q43 0 26 12Q50 51 62 132L155 791H211L171 509Q248 560 342 560Q439 560 495 501ZM341 38T392 76T469
182T496 336Q496 421 452 467T334 514Q246 514 164 454L116 114Q142 77 181 58T271 38Q341 38 392 76Z" />
<glyph unicode="c" glyph-name="c" horiz-adv-x="547" d="M142 -10T80 55T17 232Q17 329 52 403T152 519T301 560Q395 560 447 515T500 387Q482 377 465 377Q456 377 451 383T443 405Q438 460 401 487T295 515Q231 515 181 480T102 382T74 238Q74 145 121 91T250
37Q310 37 349 60T423 139Q436 139 444 132T452 111Q452 79 425 51T351 7T251 -10Q142 -10 80 55Z" />
<glyph unicode="d" glyph-name="d" horiz-adv-x="598" d="M468 128Q461 80 461 48Q461 32 465 8Q446 -4 428 -4Q405 -4 405 46V63Q368 27 321 9T220 -10Q127 -10 74 50T21 216Q21 320 57 397T158 517T312 560Q355 560 397 546T467 509L506 791H561L468 128ZM279
37T327 59T413 124L459 454Q431 483 392 499T307 515Q239 515 187 478T107 374T78 219Q78 131 116 84T226 37Q279 37 327 59Z" />
<glyph unicode="e" glyph-name="e" horiz-adv-x="560" d="M86 268Q84 240 84 224Q84 136 127 87T247 38Q366 38 413 124Q423 141 438 141Q454 141 473 125Q441 58 383 24T243 -10Q142 -10 84 51T26 221Q26 324 60 400T158 518T306 560Q403 560 455 509T507 362Q507
322 499 268H86ZM220 514T165 461T92 314H448Q452 334 452 364Q452 438 414 476T302 514Q220 514 165 461Z" />
<glyph unicode="f" glyph-name="f" horiz-adv-x="335" d="M355 782T377 772T397 741Q397 732 392 726T381 719Q358 735 310 735Q264 735 236 707T200 623L190 550H327L321 506H184L113 0H58L129 506H26L32 550H135L145 624Q155 697 200 739T312 782Q355 782 377 772Z" />
<glyph unicode="g" glyph-name="g" horiz-adv-x="585" d="M584 542T580 530Q500 530 462 501Q498 460 498 403Q498 184 253 184Q173 184 137 172T101 133Q101 110 136 101T260 91Q368 91 425 59T483 -34Q483 -117 414 -159T209 -202Q102 -202 43 -167T-17 -68Q-17
-19 16 15T106 59V62Q81 67 66 85T51 126Q51 160 76 182T145 210Q107 231 86 266T64 346Q64 452 125 506T306 560Q381 560 433 527Q462 551 494 565T554 579Q570 579 577 574T584 555Q584 542 580 530ZM441 231T441 402Q441 515 300 515Q212 515 167 473T121 349Q121
292 157 262T260 231Q441 231 441 402ZM140 42T91 16T41 -63Q41 -155 212 -155Q320 -155 372 -127T425 -41Q425 2 381 22T242 42Q140 42 91 16Z" />
<glyph unicode="h" glyph-name="h" horiz-adv-x="630" d="M449 560T493 519T537 407Q537 398 535 376L482 0H427L479 369Q481 380 481 401Q481 456 450 484T359 513Q312 513 256 493T150 438L89 0H34L145 791H200L158 492Q264 560 371 560Q449 560 493 519Z" />
<glyph unicode="i" glyph-name="i" horiz-adv-x="289" d="M137 550H192L115 0H60L137 550ZM417 659T409 666T400 688Q400 694 401 697L402 705Q404 723 415 732T445 742H452Q489 742 484 705L483 697Q480 679 469 669T440 659H433Q417 659 409 666Z" />
<glyph unicode="j" glyph-name="j" horiz-adv-x="270" d="M-74 -192T-96 -186T-128 -171Q-133 -166 -133 -156Q-133 -147 -128 -139T-118 -129Q-90 -144 -43 -144Q-8 -144 13 -124T41 -63L127 550H182L96 -58Q87 -123 48 -157T-52 -192Q-74 -192 -96 -186ZM406
659T398 666T389 688Q389 694 390 697L391 705Q393 723 404 732T434 742H441Q478 742 473 705L472 697Q469 679 458 669T429 659H422Q406 659 398 666Z" />
<glyph unicode="k" glyph-name="k" horiz-adv-x="547" d="M326 290T350 244L470 0Q460 0 445 -1T422 -3Q407 -3 399 11L301 215Q286 246 260 257T186 268L126 265L89 0H34L145 791H200L133 314L185 315Q215 316 231 323T268 354L449 550H515L311 333Q291 311 274
302Q326 290 350 244Z" />
<glyph unicode="l" glyph-name="l" horiz-adv-x="269" d="M161 791H216L105 0H50L161 791Z" />
<glyph unicode="m" glyph-name="m" horiz-adv-x="912" d="M742 560T781 524T821 424Q821 415 819 395L764 0H709L764 392Q766 410 766 418Q766 515 657 515Q613 515 569 495T483 437Q483 412 481 399L425 0H370L426 397Q428 415 428 423Q428 467 404 491T334 515Q240
515 150 431L89 0H34L89 388Q102 484 102 512Q102 529 98 539Q122 554 141 554Q160 554 160 520Q160 502 158 491V488Q246 560 347 560Q393 560 426 540T474 482Q563 560 672 560Q742 560 781 524Z" />
<glyph unicode="n" glyph-name="n" horiz-adv-x="610" d="M519 560T519 419Q519 406 515 372L480 118Q472 60 472 43Q472 22 479 7Q471 2 460 -1T438 -5Q427 -5 422 5T416 37Q416 62 422 102L460 373Q463 396 463 415Q463 467 438 491T358 516Q309 516 255 492T148
424L88 0H33L88 388Q101 484 101 512Q101 529 97 539Q121 554 140 554Q159 554 159 520Q159 502 157 491L155 480Q261 560 370 560Q519 560 519 419Z" />
<glyph unicode="o" glyph-name="o" horiz-adv-x="548" d="M15 -10T15 200Q15 312 48 393T145 517T295 560Q495 560 495 353Q495 240 462 159T365 34T215 -10Q15 -10 15 200ZM325 37T382 119T439 349Q439 433 402 473T289 514Q186 514 129 432T71 202Q71 118 108
78T222 37Q325 37 382 119Z" />
<glyph unicode="p" glyph-name="p" horiz-adv-x="598" d="M439 560T492 502T545 334Q545 229 510 152T408 32T253 -10Q208 -10 166 -1T93 24L59 -220H4L90 388Q102 483 102 514Q102 531 99 541Q109 547 120 550T140 554Q161 554 161 519V513Q161 504 159 495V492Q196
524 243 542T339 560Q439 560 492 502ZM326 36T378 72T459 176T488 333Q488 422 449 468T336 514Q288 514 240 492T150 429L100 75Q130 57 171 47T257 36Q326 36 378 72Z" />
<glyph unicode="q" glyph-name="q" horiz-adv-x="608" d="M529 554T545 541Q533 522 523 482T505 393L419 -220H364L399 33Q337 -10 247 -10Q144 -10 83 55T22 230Q22 330 56 404T154 519T303 560Q407 560 469 502Q485 554 508 554Q529 554 545 541ZM455 433L457
446Q430 479 390 497T300 515Q234 515 184 480T107 381T79 232Q79 141 126 88T255 35Q341 35 407 86L455 433Z" />
<glyph unicode="r" glyph-name="r" horiz-adv-x="400" d="M359 557T376 547T394 520Q394 501 379 492Q357 506 313 506Q267 506 227 480T160 409T125 305L83 0H28L105 550H160L146 447Q177 495 226 526T326 557Q359 557 376 547Z" />
<glyph unicode="s" glyph-name="s" horiz-adv-x="485" d="M138 -10T93 5T22 44T-4 96Q-4 127 27 133Q45 89 86 63T195 36Q266 36 310 67T355 155Q355 182 338 200T295 230T223 258Q167 277 134 293T76 338T52 412Q52 483 106 521T245 560Q314 560 364 533T437
457Q425 446 417 442T400 437Q388 437 379 451Q335 515 243 515Q181 515 145 489T108 414Q108 385 126 365T172 332T246 303Q300 284 332 268T388 225T411 156Q411 78 354 34T194 -10Q138 -10 93 5Z" />
<glyph unicode="t" glyph-name="t" horiz-adv-x="374" d="M133 137Q131 119 131 113Q131 76 149 57T204 38Q250 38 293 57Q303 50 303 35Q303 15 285 6Q254 -10 195 -10Q139 -10 107 20T74 103Q74 110 76 126L129 505H26L32 550H136L157 700H212L191 550H348L342
505H185L133 137Z" />
<glyph unicode="u" glyph-name="u" horiz-adv-x="610" d="M476 113Q471 75 471 52Q471 30 476 7Q458 -5 439 -5Q425 -5 419 6T413 43Q413 51 415 77Q380 36 330 13T223 -10Q142 -10 99 30T55 145Q55 163 58 184L110 550H165L113 182Q111 170 111 148Q111 35 228
35Q282 35 333 62T424 142L482 550H537L476 113Z" />
<glyph unicode="v" glyph-name="v" horiz-adv-x="483" d="M487 550Q453 400 385 265T211 0H159Q96 112 66 232T35 492Q35 530 36 550H92Q90 508 90 489Q90 370 115 266T192 62Q284 177 342 296T431 550H487Z" />
<glyph unicode="w" glyph-name="w" horiz-adv-x="760" d="M744 550Q664 261 506 0H459Q422 112 403 214T381 423Q347 317 300 215T187 0H138Q95 123 75 257T53 550H109V516Q109 276 172 77Q303 292 371 550H423Q420 291 493 75Q623 300 681 550H744Z" />
<glyph unicode="x" glyph-name="x" horiz-adv-x="484" d="M459 483T406 424T263 288Q311 234 342 193T392 102T411 0H352Q353 65 319 122T221 252Q137 182 87 124T18 0H-41Q-21 77 36 142T188 288Q142 340 114 378T67 459T48 550H107Q107 494 138 443T230 324Q309
390 355 442T417 550H476Q459 483 406 424Z" />
<glyph unicode="y" glyph-name="y" horiz-adv-x="485" d="M494 550L193 -42Q152 -123 108 -158T1 -193Q-34 -193 -55 -183T-76 -155Q-76 -139 -59 -130Q-49 -137 -31 -141T8 -146Q51 -146 89 -108T164 9L34 550H90L201 90L434 550H494Z" />
<glyph unicode="z" glyph-name="z" horiz-adv-x="500" d="M477 514L61 48H420L413 0H-27L-22 38L395 503H70L76 550H482L477 514Z" />
<glyph unicode="{" glyph-name="braceleft" horiz-adv-x="364" d="M122 -91T95 -66T68 5Q68 12 70 30L101 248Q103 264 103 270Q103 299 89 317T39 341L43 370Q86 377 105 401T131 464L161 682Q169 740 205 771T290 802H333L327 759H292Q260 759 239 742T212 680L183
474Q176 420 155 394T95 357L94 354Q123 347 138 328T153 272Q153 256 150 238L121 32Q120 25 120 12Q120 -48 179 -48H214L208 -91H165Q122 -91 95 -66Z" />
<glyph unicode="|" glyph-name="bar" horiz-adv-x="242" d="M152 802H200L86 -12H38L152 802Z" />
<glyph unicode="}" glyph-name="braceright" horiz-adv-x="364" d="M243 802T270 777T297 704Q297 697 295 681L264 463Q262 447 262 441Q262 412 276 394T326 370L322 341Q279 334 260 310T234 247L203 29Q195 -29 159 -60T74 -91H31L37 -48H72Q104 -48 125 -31T152
31L181 237Q188 291 209 317T270 354L271 357Q241 364 226 383T211 440Q211 455 214 473L243 679Q245 695 245 701Q245 759 185 759H150L156 802H199Q243 802 270 777Z" />
<glyph unicode="~" glyph-name="asciitilde" horiz-adv-x="600" d="M28 251Q90 351 188 351Q221 351 244 340T298 307Q326 286 347 276T399 265Q436 265 460 287T505 351L539 325Q520 277 482 248T387 218Q353 218 330 229T275 263Q246 284 226 294T177 304Q111
304 62 218L28 251Z" />
<glyph unicode="&#xa0;" glyph-name="uni00A0" horiz-adv-x="258" />
<glyph unicode="&#xa1;" glyph-name="exclamdown" horiz-adv-x="243" d="M196 560T196 532Q196 525 195 522L194 515Q188 477 151 477H144Q111 477 111 506Q111 512 112 515L113 522Q119 560 156 560H163Q196 560 196 532ZM94 -140H29L108 354H152L94 -140Z" />
<glyph unicode="&#xa2;" glyph-name="cent" horiz-adv-x="547" d="M437 473T380 499L170 54Q206 37 250 37Q310 37 349 60T423 139Q436 139 444 132T452 111Q452 79 425 51T351 7T251 -10Q193 -10 149 9L107 -80H57L109 30Q64 61 41 112T17 232Q17 329 52 403T152
519T301 560Q329 560 357 555L396 638H445L400 543Q448 523 473 484T500 387Q482 377 465 377Q456 377 451 383T443 405Q437 473 380 499ZM336 512Q318 515 295 515Q231 515 181 480T102 382T74 238Q74 187 89 147T132 80L336 512Z" />
<glyph unicode="&#xa3;" glyph-name="sterling" horiz-adv-x="609" d="M416 710T473 665T535 540Q515 527 498 527Q481 527 477 549Q450 663 328 663Q164 663 164 459Q164 429 170 373H364L357 325H176Q182 288 182 253Q182 153 137 88Q196 38 273 38Q400 38 434
173L483 161Q467 81 410 36T274 -10Q217 -10 177 5T103 50Q47 2 -43 -10L-35 46Q50 59 89 111T129 257Q129 285 124 325H2L8 373H118Q112 431 112 460Q112 575 167 642T330 710Q416 710 473 665Z" />
<glyph unicode="&#xa4;" glyph-name="currency" horiz-adv-x="609" d="M4 131L67 186Q32 234 32 308Q32 331 35 353Q50 454 114 519L66 574L111 614L161 557Q198 585 242 599T333 614Q430 614 491 557L555 614L589 574L527 519Q562 467 562 399Q562 385 558 353Q544
249 480 186L527 131L481 91L433 146Q353 91 260 91Q214 91 174 105T103 146L37 91L4 131ZM326 142T377 169T461 244T502 353Q505 373 505 390Q505 468 456 516T326 564Q267 564 217 537T133 462T91 353Q89 341 89 318Q89 240 138 191T267 142Q326 142 377 169Z"
/>
<glyph unicode="&#xa5;" glyph-name="yen" horiz-adv-x="590" d="M365 371H507L501 325H331L308 294L298 219H486L479 173H291L267 0H210L234 173H45L52 219H241L251 294L236 325H67L73 371H215L61 700H124L287 342L549 700H611L365 371Z" />
<glyph unicode="&#xa6;" glyph-name="brokenbar" horiz-adv-x="242" d="M152 802H200L157 495H109L152 802ZM81 295H129L86 -12H38L81 295Z" />
<glyph unicode="&#xa7;" glyph-name="section" horiz-adv-x="480" d="M355 269T355 282Q355 351 292 378L162 435Q123 452 102 480T81 546Q81 597 107 633T177 688T272 707Q352 707 396 668T435 565L385 556Q387 604 359 632T271 661Q209 661 171 630T132 545Q132
520 145 504T189 475L329 414Q368 397 386 365T405 289Q405 272 402 254H352Q355 269 355 282ZM99 -88T53 -48T11 54L62 63Q60 15 90 -13T181 -42Q243 -42 281 -11T320 74Q320 99 307 115T263 144L128 205Q88 223 68 257T47 335Q47 345 49 365H99Q97 349 97 341Q97
273 165 241L293 184Q371 147 371 74Q371 22 345 -14T275 -69T179 -88Q99 -88 53 -48Z" />
<glyph unicode="&#xa8;" glyph-name="dieresis" horiz-adv-x="302" d="M70 653T62 663T56 691L57 699Q59 717 70 726T100 736H107Q144 736 139 699L138 691Q136 673 125 663T95 653H88Q70 653 62 663ZM258 653T250 663T244 691L245 699Q247 717 258 726T288 736H295Q332
736 327 699L326 691Q324 673 313 663T283 653H276Q258 653 250 663Z" />
<glyph unicode="&#xa9;" glyph-name="copyright" horiz-adv-x="774" d="M239 -10T166 29T54 140T15 304Q15 417 68 510T214 656T422 710Q520 710 592 672T704 563T743 401Q743 288 691 194T546 45T336 -10Q239 -10 166 29ZM437 33T519 82T649 215T696 401Q696
480 661 541T564 635T422 668Q321 668 239 621T110 490T63 304Q63 225 98 163T195 67T336 33Q437 33 519 82ZM285 132T238 181T190 314Q190 385 217 442T296 533T414 567Q481 567 521 534T570 442L524 424Q519 472 491 498T411 524Q329 524 284 466T239 317Q239
252 273 214T367 176Q413 176 446 197T498 257L544 240Q483 132 364 132Q285 132 238 181Z" />
<glyph unicode="&#xaa;" glyph-name="ordfeminine" horiz-adv-x="380" d="M360 580T348 502Q335 431 335 398Q335 382 338 370Q326 360 306 360Q286 360 286 393Q286 398 288 420Q233 359 154 359Q110 359 81 382T51 447Q51 522 120 548T311 575Q313 597 313 603Q313
674 232 674Q201 674 179 665T137 641Q126 632 121 630T109 627Q99 627 93 634T85 651Q148 712 240 712Q292 712 326 685T360 605Q360 580 348 502ZM306 538Q208 536 153 518T98 450Q98 425 114 412T162 398Q200 398 238 420T296 472L306 538Z" />
<glyph unicode="&#xab;" glyph-name="guillemotleft" horiz-adv-x="500" d="M208 288L359 452H406L264 288L359 117H312L208 288ZM53 288L204 452H251L109 288L204 117H157L53 288Z" />
<glyph unicode="&#xac;" glyph-name="logicalnot" horiz-adv-x="600" d="M481 317H38L44 362H534L501 132H454L481 317Z" />
<glyph unicode="&#xad;" glyph-name="uni00AD" horiz-adv-x="380" d="M28 324H328L322 277H22L28 324Z" />
<glyph unicode="&#xae;" glyph-name="registered" horiz-adv-x="774" d="M520 710T592 672T704 563T743 401Q743 288 691 194T546 45T336 -10Q239 -10 166 29T54 140T15 304Q15 417 68 510T214 656T422 710Q520 710 592 672ZM437 33T519 82T649 215T696 401Q696
480 661 541T564 635T422 668Q321 668 239 621T110 490T63 304Q63 225 98 163T195 67T336 33Q437 33 519 82ZM492 543T526 515T560 434Q560 377 527 342T440 299L511 145H459L393 297H287L266 145H218L274 543H432Q492 543 526 515ZM458 338T484 362T511 434Q511
466 490 484T427 503H316L293 338H404Q458 338 484 362Z" />
<glyph unicode="&#xaf;" glyph-name="overscore" horiz-adv-x="243" d="M-1 703H326L319 654H-7L-1 703Z" />
<glyph unicode="&#xb0;" glyph-name="degree" horiz-adv-x="438" d="M170 481T130 521T90 626Q90 675 112 715T175 778T267 802Q334 802 374 762T414 658Q414 609 392 569T330 505T237 481Q170 481 130 521ZM298 523T333 559T368 658Q368 705 341 733T266 761Q206
761 171 724T136 626Q136 579 163 551T238 523Q298 523 333 559Z" />
<glyph unicode="&#xb1;" glyph-name="plusminus" horiz-adv-x="600" d="M271 356H33L39 400H277L309 629H355L323 400H559L553 356H317L284 125H238L271 356ZM-11 44H509L503 0H-17L-11 44Z" />
<glyph unicode="&#xb2;" glyph-name="uni00B2" horiz-adv-x="333" d="M340 524T305 479T221 400T95 324H298L292 282H4L10 318L41 335Q125 382 174 414T259 489T294 579Q294 621 272 644T208 668Q161 668 133 644T95 576Q60 576 60 604Q60 630 80 654T134 694T209
710Q273 710 306 675T340 578Q340 524 305 479Z" />
<glyph unicode="&#xb3;" glyph-name="uni00B3" horiz-adv-x="351" d="M298 496T314 473T331 415Q331 352 286 315T160 278Q120 278 87 288T36 315T17 349Q17 372 43 377Q90 318 163 318Q220 318 252 343T284 415Q284 485 199 485L156 484Q146 484 140 495T134
519Q134 526 141 526H198Q248 526 273 548T298 608Q298 637 277 654T214 671Q171 671 144 655T91 602Q82 602 76 608T70 624Q70 645 90 665T143 697T217 710Q274 710 309 683T345 610Q345 576 327 549T272 508Q298 496 314 473Z" />
<glyph unicode="&#xb4;" glyph-name="acute" horiz-adv-x="243" d="M235 783H302L167 632H109L235 783Z" />
<glyph unicode="&#xb6;" glyph-name="paragraph" horiz-adv-x="525" d="M232 328Q143 328 90 375T36 502Q36 578 70 634T166 720T309 750H573L567 709H488L389 0H341L440 709H333L234 0H186L232 328Z" />
<glyph unicode="&#xb7;" glyph-name="middot" horiz-adv-x="308" d="M89 238T94 276L95 284Q101 322 138 322H145Q178 322 178 293Q178 287 177 284L176 276Q171 238 134 238H127Q89 238 94 276Z" />
<glyph unicode="&#xb8;" glyph-name="cedilla" horiz-adv-x="243" d="M100 -57T122 -74T145 -125Q145 -173 105 -201T10 -229Q-33 -229 -57 -221T-81 -194Q-81 -188 -76 -176Q-34 -189 11 -189Q49 -189 70 -173T92 -132Q92 -115 80 -105T43 -95Q26 -95 2 -101L-13
-75L54 0H104L50 -58Q54 -57 63 -57Q100 -57 122 -74Z" />
<glyph unicode="&#xb9;" glyph-name="uni00B9" horiz-adv-x="379" d="M290 322L284 282H58L64 322H159L205 649Q185 632 164 621T123 610Q108 610 102 619T97 642Q128 645 162 662T226 710H257L203 322H290Z" />
<glyph unicode="&#xba;" glyph-name="ordmasculine" horiz-adv-x="380" d="M119 357T85 394T51 494Q51 554 72 603T135 681T233 710Q298 710 331 672T365 570Q365 511 343 463T280 386T184 357Q119 357 85 394ZM253 396T286 446T319 570Q319 621 296 646T228 672Q164
672 131 621T97 496Q97 446 121 421T189 396Q253 396 286 446Z" />
<glyph unicode="&#xbb;" glyph-name="guillemotright" horiz-adv-x="500" d="M292 281L141 117H94L236 281L141 452H188L292 281ZM447 281L296 117H249L391 281L296 452H343L447 281Z" />
<glyph unicode="&#xbc;" glyph-name="onequarter" horiz-adv-x="1016" d="M290 322L284 282H58L64 322H159L205 649Q185 632 164 621T123 610Q108 610 102 619T97 642Q128 645 162 662T226 710H257L203 322H290ZM671 700H715L321 0H277L671 700ZM941 98H881L867
0H823L837 98H623L626 121Q696 200 739 272T799 423Q809 425 814 425Q840 425 837 397Q834 346 790 273T691 139H843L862 275H906L887 139H947L941 98Z" />
<glyph unicode="&#xbd;" glyph-name="onehalf" horiz-adv-x="962" d="M290 322L284 282H58L64 322H159L205 649Q185 632 164 621T123 610Q108 610 102 619T97 642Q128 645 162 662T226 710H257L203 322H290ZM671 700H715L321 0H277L671 700ZM929 243T894 198T810
119T684 43H887L881 1H593L599 37L630 54Q714 101 763 133T848 208T883 298Q883 340 861 363T797 387Q750 387 722 363T684 295Q649 295 649 323Q649 349 669 373T723 413T798 429Q862 429 895 394T929 297Q929 243 894 198Z" />
<glyph unicode="&#xbe;" glyph-name="threequarters" horiz-adv-x="988" d="M298 496T314 473T331 415Q331 352 286 315T160 278Q120 278 87 288T36 315T17 349Q17 372 43 377Q90 318 163 318Q220 318 252 343T284 415Q284 485 199 485L156 484Q146 484 140 495T134
519Q134 526 141 526H198Q248 526 273 548T298 608Q298 637 277 654T214 671Q171 671 144 655T91 602Q82 602 76 608T70 624Q70 645 90 665T143 697T217 710Q274 710 309 683T345 610Q345 576 327 549T272 508Q298 496 314 473ZM643 700H687L293 0H249L643 700ZM913
98H853L839 0H795L809 98H595L598 121Q668 200 711 272T771 423Q781 425 786 425Q812 425 809 397Q806 346 762 273T663 139H815L834 275H878L859 139H919L913 98Z" />
<glyph unicode="&#xbf;" glyph-name="questiondown" horiz-adv-x="475" d="M329 552T327 519L325 503Q319 469 282 469H275Q240 469 243 501L244 516Q250 552 287 552H294Q329 552 327 519ZM286 323Q280 285 259 255T215 204T140 145Q93 109 71 78T48 2Q48 -50
82 -79T179 -108Q244 -108 286 -75T354 18L399 -6Q371 -75 314 -116T175 -157Q94 -157 44 -116T-7 1Q-7 58 21 97T108 179L125 191Q178 231 203 260T235 333L240 363H292L286 323Z" />
<glyph unicode="&#xc0;" glyph-name="Agrave" horiz-adv-x="620" d="M483 105T468 203H95Q54 107 17 0H-42Q31 206 119 374T324 700H379Q451 544 491 376T548 0H489Q483 105 468 203ZM460 253Q423 467 343 640Q216 469 117 253H460ZM528 893H591L671 742H617L528 893Z" />
<glyph unicode="&#xc1;" glyph-name="Aacute" horiz-adv-x="620" d="M483 105T468 203H95Q54 107 17 0H-42Q31 206 119 374T324 700H379Q451 544 491 376T548 0H489Q483 105 468 203ZM460 253Q423 467 343 640Q216 469 117 253H460ZM433 893H500L365 742H307L433 893Z" />
<glyph unicode="&#xc2;" glyph-name="Acircumflex" horiz-adv-x="620" d="M483 105T468 203H95Q54 107 17 0H-42Q31 206 119 374T324 700H379Q451 544 491 376T548 0H489Q483 105 468 203ZM460 253Q423 467 343 640Q216 469 117 253H460ZM605 875H658L756 742H704L629
835L526 742H470L605 875Z" />
<glyph unicode="&#xc3;" glyph-name="Atilde" horiz-adv-x="620" d="M483 105T468 203H95Q54 107 17 0H-42Q31 206 119 374T324 700H379Q451 544 491 376T548 0H489Q483 105 468 203ZM460 253Q423 467 343 640Q216 469 117 253H460ZM468 748T468 775Q468 807 496
827T564 848Q585 848 601 840T635 818Q651 806 662 800T688 794Q712 794 725 807T744 851Q775 851 775 822Q775 793 749 772T686 750Q662 750 646 757T610 780Q594 792 583 798T556 804Q533 804 519 791T497 748Q468 748 468 775Z" />
<glyph unicode="&#xc4;" glyph-name="Adieresis" horiz-adv-x="620" d="M483 105T468 203H95Q54 107 17 0H-42Q31 206 119 374T324 700H379Q451 544 491 376T548 0H489Q483 105 468 203ZM460 253Q423 467 343 640Q216 469 117 253H460ZM245 763T237 773T231 801L232
809Q234 827 245 836T275 846H282Q319 846 314 809L313 801Q311 783 300 773T270 763H263Q245 763 237 773ZM433 763T425 773T419 801L420 809Q422 827 433 836T463 846H470Q507 846 502 809L501 801Q499 783 488 773T458 763H451Q433 763 425 773Z" />
<glyph unicode="&#xc5;" glyph-name="Aring" horiz-adv-x="620" d="M483 105T468 203H95Q54 107 17 0H-42Q31 206 119 374T324 700H379Q451 544 491 376T548 0H489Q483 105 468 203ZM460 253Q423 467 343 640Q216 469 117 253H460ZM572 738T544 764T516 834Q516
888 552 922T641 957Q683 957 710 931T738 861Q738 806 702 772T614 738Q572 738 544 764ZM652 779T674 801T696 859Q696 886 680 901T637 916Q602 916 581 893T559 837Q559 811 575 795T619 779Q652 779 674 801Z" />
<glyph unicode="&#xc6;" glyph-name="AE" horiz-adv-x="930" d="M554 650L518 393H830L823 343H511L470 49H819Q817 21 806 11T771 0H413L442 206H106Q47 98 17 0H-42Q24 200 158 386T481 700H916L909 650H554ZM449 256L505 650H495Q393 578 300 476T135 256H449Z" />
<glyph unicode="&#xc7;" glyph-name="Ccedilla" horiz-adv-x="596" d="M443 710T494 690T577 633Q570 619 560 611T541 602Q530 602 518 611Q458 658 380 658Q295 658 231 611T132 475T97 270Q97 160 150 102T304 43Q409 43 476 109Q487 108 493 102T499 85Q499
63 473 42T405 7T316 -10L270 -58Q275 -57 284 -57Q320 -57 343 -74T366 -125Q366 -173 326 -201T231 -229Q188 -229 164 -221T140 -194Q140 -188 145 -176Q187 -189 231 -189Q269 -189 290 -173T312 -132Q312 -95 264 -95Q246 -95 223 -101L208 -75L267 -9Q157
1 97 72T37 267Q37 402 79 502T199 656T382 710Q443 710 494 690Z" />
<glyph unicode="&#xc8;" glyph-name="Egrave" horiz-adv-x="560" d="M177 650L140 388H453L447 338H133L93 50H455Q450 21 441 11T408 0H29L127 700H545L538 650H177ZM500 903H563L643 752H589L500 903Z" />
<glyph unicode="&#xc9;" glyph-name="Eacute" horiz-adv-x="560" d="M177 650L140 388H453L447 338H133L93 50H455Q450 21 441 11T408 0H29L127 700H545L538 650H177ZM405 903H472L337 752H279L405 903Z" />
<glyph unicode="&#xca;" glyph-name="Ecircumflex" horiz-adv-x="560" d="M177 650L140 388H453L447 338H133L93 50H455Q450 21 441 11T408 0H29L127 700H545L538 650H177ZM577 885H630L728 752H676L601 845L498 752H442L577 885Z" />
<glyph unicode="&#xcb;" glyph-name="Edieresis" horiz-adv-x="560" d="M177 650L140 388H453L447 338H133L93 50H455Q450 21 441 11T408 0H29L127 700H545L538 650H177ZM217 773T209 783T203 811L204 819Q206 837 217 846T247 856H254Q291 856 286 819L285 811Q283
793 272 783T242 773H235Q217 773 209 783ZM405 773T397 783T391 811L392 819Q394 837 405 846T435 856H442Q479 856 474 819L473 811Q471 793 460 783T430 773H423Q405 773 397 783Z" />
<glyph unicode="&#xcc;" glyph-name="Igrave" horiz-adv-x="350" d="M188 700H245L147 0H90L188 700ZM393 893H456L536 742H482L393 893Z" />
<glyph unicode="&#xcd;" glyph-name="Iacute" horiz-adv-x="350" d="M188 700H245L147 0H90L188 700ZM298 893H365L230 742H172L298 893Z" />
<glyph unicode="&#xce;" glyph-name="Icircumflex" horiz-adv-x="350" d="M188 700H245L147 0H90L188 700ZM470 875H523L621 742H569L494 835L391 742H335L470 875Z" />
<glyph unicode="&#xcf;" glyph-name="Idieresis" horiz-adv-x="350" d="M188 700H245L147 0H90L188 700ZM110 763T102 773T96 801L97 809Q99 827 110 836T140 846H147Q184 846 179 809L178 801Q176 783 165 773T135 763H128Q110 763 102 773ZM298 763T290 773T284
801L285 809Q287 827 298 836T328 846H335Q372 846 367 809L366 801Q364 783 353 773T323 763H316Q298 763 290 773Z" />
<glyph unicode="&#xd0;" glyph-name="Eth" horiz-adv-x="672" d="M463 700T538 626T613 417Q613 291 568 197T440 51T246 0H29L76 333H-10L-4 379H82L127 700H329Q463 700 538 626ZM339 50T409 94T516 220T554 416Q554 529 496 589T327 650H177L139 379H342L335
333H133L93 50H243Q339 50 409 94Z" />
<glyph unicode="&#xd1;" glyph-name="Ntilde" horiz-adv-x="690" d="M641 700L562 137Q550 59 550 27Q550 15 542 8T521 0H486L494 64Q496 84 496 90Q496 123 474 159L173 621L86 0H29L127 700H174Q184 700 189 697T201 684L514 203L584 700H641ZM502 748T502
775Q502 807 530 827T598 848Q619 848 635 840T669 818Q685 806 696 800T722 794Q746 794 759 807T778 851Q809 851 809 822Q809 793 783 772T720 750Q696 750 680 757T644 780Q628 792 617 798T590 804Q567 804 553 791T531 748Q502 748 502 775Z" />
<glyph unicode="&#xd2;" glyph-name="Ograve" horiz-adv-x="680" d="M167 -10T100 66T33 277Q33 408 75 506T196 657T379 710Q498 710 564 636T631 430Q631 293 590 194T472 43T287 -10Q167 -10 100 66ZM378 42T441 88T538 220T572 426Q572 537 520 597T373 658Q288
658 225 612T127 480T92 279Q92 166 144 104T291 42Q378 42 441 88ZM558 893H621L701 742H647L558 893Z" />
<glyph unicode="&#xd3;" glyph-name="Oacute" horiz-adv-x="680" d="M167 -10T100 66T33 277Q33 408 75 506T196 657T379 710Q498 710 564 636T631 430Q631 293 590 194T472 43T287 -10Q167 -10 100 66ZM378 42T441 88T538 220T572 426Q572 537 520 597T373 658Q288
658 225 612T127 480T92 279Q92 166 144 104T291 42Q378 42 441 88ZM463 893H530L395 742H337L463 893Z" />
<glyph unicode="&#xd4;" glyph-name="Ocircumflex" horiz-adv-x="680" d="M167 -10T100 66T33 277Q33 408 75 506T196 657T379 710Q498 710 564 636T631 430Q631 293 590 194T472 43T287 -10Q167 -10 100 66ZM378 42T441 88T538 220T572 426Q572 537 520 597T373
658Q288 658 225 612T127 480T92 279Q92 166 144 104T291 42Q378 42 441 88ZM635 875H688L786 742H734L659 835L556 742H500L635 875Z" />
<glyph unicode="&#xd5;" glyph-name="Otilde" horiz-adv-x="680" d="M167 -10T100 66T33 277Q33 408 75 506T196 657T379 710Q498 710 564 636T631 430Q631 293 590 194T472 43T287 -10Q167 -10 100 66ZM378 42T441 88T538 220T572 426Q572 537 520 597T373 658Q288
658 225 612T127 480T92 279Q92 166 144 104T291 42Q378 42 441 88ZM498 748T498 775Q498 807 526 827T594 848Q615 848 631 840T665 818Q681 806 692 800T718 794Q742 794 755 807T774 851Q805 851 805 822Q805 793 779 772T716 750Q692 750 676 757T640 780Q624
792 613 798T586 804Q563 804 549 791T527 748Q498 748 498 775Z" />
<glyph unicode="&#xd6;" glyph-name="Odieresis" horiz-adv-x="680" d="M167 -10T100 66T33 277Q33 408 75 506T196 657T379 710Q498 710 564 636T631 430Q631 293 590 194T472 43T287 -10Q167 -10 100 66ZM378 42T441 88T538 220T572 426Q572 537 520 597T373
658Q288 658 225 612T127 480T92 279Q92 166 144 104T291 42Q378 42 441 88ZM275 763T267 773T261 801L262 809Q264 827 275 836T305 846H312Q349 846 344 809L343 801Q341 783 330 773T300 763H293Q275 763 267 773ZM463 763T455 773T449 801L450 809Q452 827
463 836T493 846H500Q537 846 532 809L531 801Q529 783 518 773T488 763H481Q463 763 455 773Z" />
<glyph unicode="&#xd7;" glyph-name="multiply" horiz-adv-x="600" d="M73 163L257 324L119 485L152 515L290 356L474 515L504 485L320 324L458 163L425 133L287 293L103 133L73 163Z" />
<glyph unicode="&#xd8;" glyph-name="Oslash" horiz-adv-x="680" d="M579 618Q631 546 631 430Q631 293 590 194T472 43T287 -10Q179 -10 114 52L71 0H11L83 88Q33 159 33 277Q33 408 75 506T196 657T379 710Q482 710 547 653L587 701H647L579 618ZM92 195T123
136L510 608Q460 658 373 658Q288 658 225 612T127 480T92 279Q92 195 123 136ZM572 515T539 570L151 97Q201 42 291 42Q378 42 441 88T538 220T572 426Q572 515 539 570Z" />
<glyph unicode="&#xd9;" glyph-name="Ugrave" horiz-adv-x="708" d="M177 -10T118 39T59 190Q59 214 64 251L127 700H184L121 246Q117 222 117 197Q117 117 163 79T305 40Q415 40 473 90T546 246L609 700H666L603 251Q584 117 510 54T297 -10Q177 -10 118 39ZM571
883H634L714 732H660L571 883Z" />
<glyph unicode="&#xda;" glyph-name="Uacute" horiz-adv-x="708" d="M177 -10T118 39T59 190Q59 214 64 251L127 700H184L121 246Q117 222 117 197Q117 117 163 79T305 40Q415 40 473 90T546 246L609 700H666L603 251Q584 117 510 54T297 -10Q177 -10 118 39ZM476
883H543L408 732H350L476 883Z" />
<glyph unicode="&#xdb;" glyph-name="Ucircumflex" horiz-adv-x="708" d="M177 -10T118 39T59 190Q59 214 64 251L127 700H184L121 246Q117 222 117 197Q117 117 163 79T305 40Q415 40 473 90T546 246L609 700H666L603 251Q584 117 510 54T297 -10Q177 -10 118
39ZM648 865H701L799 732H747L672 825L569 732H513L648 865Z" />
<glyph unicode="&#xdc;" glyph-name="Udieresis" horiz-adv-x="708" d="M177 -10T118 39T59 190Q59 214 64 251L127 700H184L121 246Q117 222 117 197Q117 117 163 79T305 40Q415 40 473 90T546 246L609 700H666L603 251Q584 117 510 54T297 -10Q177 -10 118 39ZM288
753T280 763T274 791L275 799Q277 817 288 826T318 836H325Q362 836 357 799L356 791Q354 773 343 763T313 753H306Q288 753 280 763ZM476 753T468 763T462 791L463 799Q465 817 476 826T506 836H513Q550 836 545 799L544 791Q542 773 531 763T501 753H494Q476
753 468 763Z" />
<glyph unicode="&#xdd;" glyph-name="Yacute" horiz-adv-x="590" d="M611 700L308 294L267 0H210L251 294L61 700H124L287 342L549 700H611ZM418 893H485L350 742H292L418 893Z" />
<glyph unicode="&#xde;" glyph-name="Thorn" horiz-adv-x="641" d="M466 593T525 541T584 397Q584 268 510 196T297 123H126L109 0H52L150 700H207L192 593H343Q466 593 525 541ZM405 172T465 232T525 397Q525 467 482 505T346 544H185L133 172H294Q405 172 465 232Z" />
<glyph unicode="&#xdf;" glyph-name="germandbls" horiz-adv-x="617" d="M469 347T497 306T526 207Q526 140 497 90T416 13T293 -14Q235 -14 188 3T140 47Q140 70 161 76Q189 52 219 42T294 32Q377 32 425 79T474 208Q474 272 436 305T330 339Q320 339 302 337L277
336Q263 336 255 348T248 375Q250 384 257 384H328Q403 384 448 428T494 551Q494 614 452 650T340 686Q262 686 214 644T154 517L81 0H27L100 517Q114 621 178 676T346 731Q404 731 449 709T520 647T546 553Q546 485 513 435T419 362Q469 347 497 306Z" />
<glyph unicode="&#xe0;" glyph-name="agrave" horiz-adv-x="558" d="M438 132Q433 97 433 81Q433 41 455 17Q449 9 437 2T415 -5Q397 -5 387 15T376 73L377 91Q338 44 285 17T169 -10Q99 -10 56 29T12 135Q12 233 111 283T412 341L416 373Q418 384 418 403Q418
457 387 485T293 514Q239 514 194 494T105 434Q100 429 91 429Q82 429 73 436T58 457Q108 506 169 533T300 560Q382 560 428 520T474 408Q474 391 471 373L438 132ZM294 36T386 159L405 295Q229 289 149 251T68 136Q68 89 96 63T176 36Q294 36 386 159ZM480 783H543L623
632H569L480 783Z" />
<glyph unicode="&#xe1;" glyph-name="aacute" horiz-adv-x="558" d="M438 132Q433 97 433 81Q433 41 455 17Q449 9 437 2T415 -5Q397 -5 387 15T376 73L377 91Q338 44 285 17T169 -10Q99 -10 56 29T12 135Q12 233 111 283T412 341L416 373Q418 384 418 403Q418
457 387 485T293 514Q239 514 194 494T105 434Q100 429 91 429Q82 429 73 436T58 457Q108 506 169 533T300 560Q382 560 428 520T474 408Q474 391 471 373L438 132ZM294 36T386 159L405 295Q229 289 149 251T68 136Q68 89 96 63T176 36Q294 36 386 159ZM385 783H452L317
632H259L385 783Z" />
<glyph unicode="&#xe2;" glyph-name="acircumflex" horiz-adv-x="558" d="M438 132Q433 97 433 81Q433 41 455 17Q449 9 437 2T415 -5Q397 -5 387 15T376 73L377 91Q338 44 285 17T169 -10Q99 -10 56 29T12 135Q12 233 111 283T412 341L416 373Q418 384 418 403Q418
457 387 485T293 514Q239 514 194 494T105 434Q100 429 91 429Q82 429 73 436T58 457Q108 506 169 533T300 560Q382 560 428 520T474 408Q474 391 471 373L438 132ZM294 36T386 159L405 295Q229 289 149 251T68 136Q68 89 96 63T176 36Q294 36 386 159ZM557 765H610L708
632H656L581 725L478 632H422L557 765Z" />
<glyph unicode="&#xe3;" glyph-name="atilde" horiz-adv-x="558" d="M438 132Q433 97 433 81Q433 41 455 17Q449 9 437 2T415 -5Q397 -5 387 15T376 73L377 91Q338 44 285 17T169 -10Q99 -10 56 29T12 135Q12 233 111 283T412 341L416 373Q418 384 418 403Q418
457 387 485T293 514Q239 514 194 494T105 434Q100 429 91 429Q82 429 73 436T58 457Q108 506 169 533T300 560Q382 560 428 520T474 408Q474 391 471 373L438 132ZM294 36T386 159L405 295Q229 289 149 251T68 136Q68 89 96 63T176 36Q294 36 386 159ZM420 638T420
665Q420 697 448 717T516 738Q537 738 553 730T587 708Q603 696 614 690T640 684Q664 684 677 697T696 741Q727 741 727 712Q727 683 701 662T638 640Q614 640 598 647T562 670Q546 682 535 688T508 694Q485 694 471 681T449 638Q420 638 420 665Z" />
<glyph unicode="&#xe4;" glyph-name="adieresis" horiz-adv-x="558" d="M438 132Q433 97 433 81Q433 41 455 17Q449 9 437 2T415 -5Q397 -5 387 15T376 73L377 91Q338 44 285 17T169 -10Q99 -10 56 29T12 135Q12 233 111 283T412 341L416 373Q418 384 418 403Q418
457 387 485T293 514Q239 514 194 494T105 434Q100 429 91 429Q82 429 73 436T58 457Q108 506 169 533T300 560Q382 560 428 520T474 408Q474 391 471 373L438 132ZM294 36T386 159L405 295Q229 289 149 251T68 136Q68 89 96 63T176 36Q294 36 386 159ZM197 653T189
663T183 691L184 699Q186 717 197 726T227 736H234Q271 736 266 699L265 691Q263 673 252 663T222 653H215Q197 653 189 663ZM385 653T377 663T371 691L372 699Q374 717 385 726T415 736H422Q459 736 454 699L453 691Q451 673 440 663T410 653H403Q385 653 377
663Z" />
<glyph unicode="&#xe5;" glyph-name="aring" horiz-adv-x="558" d="M438 132Q433 97 433 81Q433 41 455 17Q449 9 437 2T415 -5Q397 -5 387 15T376 73L377 91Q338 44 285 17T169 -10Q99 -10 56 29T12 135Q12 233 111 283T412 341L416 373Q418 384 418 403Q418
457 387 485T293 514Q239 514 194 494T105 434Q100 429 91 429Q82 429 73 436T58 457Q108 506 169 533T300 560Q382 560 428 520T474 408Q474 391 471 373L438 132ZM294 36T386 159L405 295Q229 289 149 251T68 136Q68 89 96 63T176 36Q294 36 386 159ZM524 628T496
654T468 724Q468 778 504 812T593 847Q635 847 662 821T690 751Q690 696 654 662T566 628Q524 628 496 654ZM604 669T626 691T648 749Q648 776 632 791T589 806Q554 806 533 783T511 727Q511 701 527 685T571 669Q604 669 626 691Z" />
<glyph unicode="&#xe6;" glyph-name="ae" horiz-adv-x="928" d="M459 278Q455 249 455 211Q455 123 496 80T611 36Q672 36 713 59T788 131Q797 144 808 144Q822 144 843 128Q810 61 751 25T605 -12Q538 -12 490 17T418 103Q372 46 313 17T171 -12Q100 -12 56 26T11
126Q11 205 64 248T203 306T411 322Q420 390 420 405Q420 462 386 488T288 514Q188 514 106 442Q96 434 89 434Q75 434 58 464Q104 509 163 534T292 560Q360 560 406 533T468 453Q504 503 558 531T680 560Q878 560 878 362Q878 333 866 279L459 278ZM593 516T541
463T467 322L821 323Q825 343 825 367Q825 439 787 477T674 516Q593 516 541 463ZM253 35T309 68T402 161Q399 184 399 209Q399 248 403 277Q246 277 157 248T67 133Q67 89 96 62T176 35Q253 35 309 68Z" />
<glyph unicode="&#xe7;" glyph-name="ccedilla" horiz-adv-x="547" d="M231 515T181 480T102 382T74 238Q74 145 121 91T250 37Q310 37 349 60T423 139Q436 139 444 132T452 111Q452 79 425 51T351 7T251 -10H250L205 -58Q210 -57 219 -57Q255 -57 278 -74T301
-125Q301 -173 261 -201T166 -229Q123 -229 99 -221T75 -194Q75 -188 80 -176Q122 -189 166 -189Q204 -189 225 -173T247 -132Q247 -95 199 -95Q180 -95 158 -101L143 -75L204 -7Q116 7 67 70T17 232Q17 329 52 403T152 519T301 560Q395 560 447 515T500 387Q482
377 465 377Q456 377 451 383T443 405Q438 460 401 487T295 515Q231 515 181 480Z" />
<glyph unicode="&#xe8;" glyph-name="egrave" horiz-adv-x="560" d="M86 268Q84 240 84 224Q84 136 127 87T247 38Q366 38 413 124Q423 141 438 141Q454 141 473 125Q441 58 383 24T243 -10Q142 -10 84 51T26 221Q26 324 60 400T158 518T306 560Q403 560 455 509T507
362Q507 322 499 268H86ZM220 514T165 461T92 314H448Q452 334 452 364Q452 438 414 476T302 514Q220 514 165 461ZM489 783H552L632 632H578L489 783Z" />
<glyph unicode="&#xe9;" glyph-name="eacute" horiz-adv-x="560" d="M86 268Q84 240 84 224Q84 136 127 87T247 38Q366 38 413 124Q423 141 438 141Q454 141 473 125Q441 58 383 24T243 -10Q142 -10 84 51T26 221Q26 324 60 400T158 518T306 560Q403 560 455 509T507
362Q507 322 499 268H86ZM220 514T165 461T92 314H448Q452 334 452 364Q452 438 414 476T302 514Q220 514 165 461ZM394 783H461L326 632H268L394 783Z" />
<glyph unicode="&#xea;" glyph-name="ecircumflex" horiz-adv-x="560" d="M86 268Q84 240 84 224Q84 136 127 87T247 38Q366 38 413 124Q423 141 438 141Q454 141 473 125Q441 58 383 24T243 -10Q142 -10 84 51T26 221Q26 324 60 400T158 518T306 560Q403 560
455 509T507 362Q507 322 499 268H86ZM220 514T165 461T92 314H448Q452 334 452 364Q452 438 414 476T302 514Q220 514 165 461ZM566 765H619L717 632H665L590 725L487 632H431L566 765Z" />
<glyph unicode="&#xeb;" glyph-name="edieresis" horiz-adv-x="560" d="M86 268Q84 240 84 224Q84 136 127 87T247 38Q366 38 413 124Q423 141 438 141Q454 141 473 125Q441 58 383 24T243 -10Q142 -10 84 51T26 221Q26 324 60 400T158 518T306 560Q403 560 455
509T507 362Q507 322 499 268H86ZM220 514T165 461T92 314H448Q452 334 452 364Q452 438 414 476T302 514Q220 514 165 461ZM206 653T198 663T192 691L193 699Q195 717 206 726T236 736H243Q280 736 275 699L274 691Q272 673 261 663T231 653H224Q206 653 198 663ZM394
653T386 663T380 691L381 699Q383 717 394 726T424 736H431Q468 736 463 699L462 691Q460 673 449 663T419 653H412Q394 653 386 663Z" />
<glyph unicode="&#xec;" glyph-name="igrave" horiz-adv-x="289" d="M137 550H192L115 0H60L137 550ZM348 783H411L491 632H437L348 783Z" />
<glyph unicode="&#xed;" glyph-name="iacute" horiz-adv-x="289" d="M137 550H192L115 0H60L137 550ZM253 783H320L185 632H127L253 783Z" />
<glyph unicode="&#xee;" glyph-name="icircumflex" horiz-adv-x="289" d="M137 550H192L115 0H60L137 550ZM425 765H478L576 632H524L449 725L346 632H290L425 765Z" />
<glyph unicode="&#xef;" glyph-name="idieresis" horiz-adv-x="289" d="M137 550H192L115 0H60L137 550ZM65 653T57 663T51 691L52 699Q54 717 65 726T95 736H102Q139 736 134 699L133 691Q131 673 120 663T90 653H83Q65 653 57 663ZM253 653T245 663T239 691L240
699Q242 717 253 726T283 736H290Q327 736 322 699L321 691Q319 673 308 663T278 653H271Q253 653 245 663Z" />
<glyph unicode="&#xf0;" glyph-name="eth" horiz-adv-x="547" d="M496 555T496 353Q496 181 432 85T232 -12Q159 -12 111 19T39 102T16 217Q16 316 47 393T140 515T294 560Q369 560 414 521Q387 601 328 666L211 600L187 641L293 701Q255 733 216 755L257 794Q305
763 341 728L460 795L484 753L376 692Q496 555 496 353ZM337 34T387 116T438 331Q438 414 402 464T289 514Q181 514 126 432T71 218Q71 134 112 84T232 34Q337 34 387 116Z" />
<glyph unicode="&#xf1;" glyph-name="ntilde" horiz-adv-x="610" d="M519 560T519 419Q519 406 515 372L480 118Q472 60 472 43Q472 22 479 7Q471 2 460 -1T438 -5Q427 -5 422 5T416 37Q416 62 422 102L460 373Q463 396 463 415Q463 467 438 491T358 516Q309 516
255 492T148 424L88 0H33L88 388Q101 484 101 512Q101 529 97 539Q121 554 140 554Q159 554 159 520Q159 502 157 491L155 480Q261 560 370 560Q519 560 519 419ZM448 638T448 665Q448 697 476 717T544 738Q565 738 581 730T615 708Q631 696 642 690T668 684Q692
684 705 697T724 741Q755 741 755 712Q755 683 729 662T666 640Q642 640 626 647T590 670Q574 682 563 688T536 694Q513 694 499 681T477 638Q448 638 448 665Z" />
<glyph unicode="&#xf2;" glyph-name="ograve" horiz-adv-x="548" d="M15 -10T15 200Q15 312 48 393T145 517T295 560Q495 560 495 353Q495 240 462 159T365 34T215 -10Q15 -10 15 200ZM325 37T382 119T439 349Q439 433 402 473T289 514Q186 514 129 432T71 202Q71
118 108 78T222 37Q325 37 382 119ZM477 783H540L620 632H566L477 783Z" />
<glyph unicode="&#xf3;" glyph-name="oacute" horiz-adv-x="548" d="M15 -10T15 200Q15 312 48 393T145 517T295 560Q495 560 495 353Q495 240 462 159T365 34T215 -10Q15 -10 15 200ZM325 37T382 119T439 349Q439 433 402 473T289 514Q186 514 129 432T71 202Q71
118 108 78T222 37Q325 37 382 119ZM382 783H449L314 632H256L382 783Z" />
<glyph unicode="&#xf4;" glyph-name="ocircumflex" horiz-adv-x="548" d="M15 -10T15 200Q15 312 48 393T145 517T295 560Q495 560 495 353Q495 240 462 159T365 34T215 -10Q15 -10 15 200ZM325 37T382 119T439 349Q439 433 402 473T289 514Q186 514 129 432T71
202Q71 118 108 78T222 37Q325 37 382 119ZM554 765H607L705 632H653L578 725L475 632H419L554 765Z" />
<glyph unicode="&#xf5;" glyph-name="otilde" horiz-adv-x="548" d="M15 -10T15 200Q15 312 48 393T145 517T295 560Q495 560 495 353Q495 240 462 159T365 34T215 -10Q15 -10 15 200ZM325 37T382 119T439 349Q439 433 402 473T289 514Q186 514 129 432T71 202Q71
118 108 78T222 37Q325 37 382 119ZM417 638T417 665Q417 697 445 717T513 738Q534 738 550 730T584 708Q600 696 611 690T637 684Q661 684 674 697T693 741Q724 741 724 712Q724 683 698 662T635 640Q611 640 595 647T559 670Q543 682 532 688T505 694Q482 694
468 681T446 638Q417 638 417 665Z" />
<glyph unicode="&#xf6;" glyph-name="odieresis" horiz-adv-x="548" d="M15 -10T15 200Q15 312 48 393T145 517T295 560Q495 560 495 353Q495 240 462 159T365 34T215 -10Q15 -10 15 200ZM325 37T382 119T439 349Q439 433 402 473T289 514Q186 514 129 432T71
202Q71 118 108 78T222 37Q325 37 382 119ZM194 653T186 663T180 691L181 699Q183 717 194 726T224 736H231Q268 736 263 699L262 691Q260 673 249 663T219 653H212Q194 653 186 663ZM382 653T374 663T368 691L369 699Q371 717 382 726T412 736H419Q456 736 451
699L450 691Q448 673 437 663T407 653H400Q382 653 374 663Z" />
<glyph unicode="&#xf7;" glyph-name="divide" horiz-adv-x="600" d="M282 476T270 487T258 515Q258 535 275 551T312 568Q329 568 341 556T353 527Q353 507 337 492T299 476Q282 476 270 487ZM61 346H521L515 302H55L61 346ZM225 85T213 99T204 130Q206 149 222
163T257 178Q276 178 288 164T298 130Q295 113 279 99T244 85Q225 85 213 99Z" />
<glyph unicode="&#xf8;" glyph-name="oslash" horiz-adv-x="548" d="M466 481Q495 431 495 353Q495 240 462 159T365 34T215 -10Q122 -10 70 37L37 0H-17L45 69Q15 119 15 200Q15 312 48 393T145 517T295 560Q389 560 441 513L474 550H528L466 481ZM71 151T85
115L404 471Q367 514 289 514Q186 514 129 432T71 202Q71 151 85 115ZM439 399T425 435L107 79Q145 37 222 37Q325 37 382 119T439 349Q439 399 425 435Z" />
<glyph unicode="&#xf9;" glyph-name="ugrave" horiz-adv-x="609" d="M476 113Q471 75 471 52Q471 30 476 7Q458 -5 439 -5Q425 -5 419 6T413 43Q413 51 415 77Q380 36 330 13T223 -10Q142 -10 99 30T55 145Q55 163 58 184L110 550H165L113 182Q111 170 111 148Q111
35 228 35Q282 35 333 62T424 142L482 550H537L476 113ZM507 783H570L650 632H596L507 783Z" />
<glyph unicode="&#xfa;" glyph-name="uacute" horiz-adv-x="609" d="M476 113Q471 75 471 52Q471 30 476 7Q458 -5 439 -5Q425 -5 419 6T413 43Q413 51 415 77Q380 36 330 13T223 -10Q142 -10 99 30T55 145Q55 163 58 184L110 550H165L113 182Q111 170 111 148Q111
35 228 35Q282 35 333 62T424 142L482 550H537L476 113ZM413 783H480L345 632H287L413 783Z" />
<glyph unicode="&#xfb;" glyph-name="ucircumflex" horiz-adv-x="609" d="M476 113Q471 75 471 52Q471 30 476 7Q458 -5 439 -5Q425 -5 419 6T413 43Q413 51 415 77Q380 36 330 13T223 -10Q142 -10 99 30T55 145Q55 163 58 184L110 550H165L113 182Q111 170 111
148Q111 35 228 35Q282 35 333 62T424 142L482 550H537L476 113ZM585 765H638L736 632H684L609 725L506 632H450L585 765Z" />
<glyph unicode="&#xfc;" glyph-name="udieresis" horiz-adv-x="609" d="M476 113Q471 75 471 52Q471 30 476 7Q458 -5 439 -5Q425 -5 419 6T413 43Q413 51 415 77Q380 36 330 13T223 -10Q142 -10 99 30T55 145Q55 163 58 184L110 550H165L113 182Q111 170 111
148Q111 35 228 35Q282 35 333 62T424 142L482 550H537L476 113ZM225 653T217 663T211 691L212 699Q214 717 225 726T255 736H262Q299 736 294 699L293 691Q291 673 280 663T250 653H243Q225 653 217 663ZM413 653T405 663T399 691L400 699Q402 717 413 726T443
736H450Q487 736 482 699L481 691Q479 673 468 663T438 653H431Q413 653 405 663Z" />
<glyph unicode="&#xfd;" glyph-name="yacute" horiz-adv-x="485" d="M494 550L193 -42Q152 -123 108 -158T1 -193Q-34 -193 -55 -183T-76 -155Q-76 -139 -59 -130Q-49 -137 -31 -141T8 -146Q51 -146 89 -108T164 9L34 550H90L201 90L434 550H494ZM351 783H418L283
632H225L351 783Z" />
<glyph unicode="&#xfe;" glyph-name="thorn" horiz-adv-x="609" d="M437 560T491 510T546 351Q546 318 540 280Q527 188 487 123T385 23T249 -12Q160 -12 92 24L58 -220H4L146 791H200L158 491Q197 524 245 542T342 560Q437 560 491 510ZM489 320T489 345Q489
431 449 472T336 514Q284 514 237 491T149 431L99 74Q130 55 170 45T255 34Q341 34 404 97T484 280Q489 320 489 345Z" />
<glyph unicode="&#xff;" glyph-name="ydieresis" horiz-adv-x="485" d="M494 550L193 -42Q152 -123 108 -158T1 -193Q-34 -193 -55 -183T-76 -155Q-76 -139 -59 -130Q-49 -137 -31 -141T8 -146Q51 -146 89 -108T164 9L34 550H90L201 90L434 550H494ZM163 653T155
663T149 691L150 699Q152 717 163 726T193 736H200Q237 736 232 699L231 691Q229 673 218 663T188 653H181Q163 653 155 663ZM351 653T343 663T337 691L338 699Q340 717 351 726T381 736H388Q425 736 420 699L419 691Q417 673 406 663T376 653H369Q351 653 343
663Z" />
<glyph unicode="&#x2013;" glyph-name="endash" horiz-adv-x="623" d="M38 324H561L555 277H32L38 324Z" />
<glyph unicode="&#x2014;" glyph-name="emdash" horiz-adv-x="1100" d="M38 324H1038L1032 277H32L38 324Z" />
<glyph unicode="&#x2018;" glyph-name="quoteleft" horiz-adv-x="243" d="M308 711T290 685T263 625H267Q283 625 291 615T297 588L296 579Q294 562 283 552T255 542H245Q231 542 222 550T213 572L214 581L215 591Q219 621 233 653T269 713Q286 735 296 743T317
751Q329 751 339 741Q308 711 290 685Z" />
<glyph unicode="&#x2019;" glyph-name="quoteright" horiz-adv-x="243" d="M202 743T210 733T217 703L215 694Q211 663 197 631T161 571Q144 549 134 541T114 533Q103 533 91 543Q122 573 140 599T167 659H163Q149 659 141 666T133 687Q133 693 134 696L135 706Q137
722 148 732T175 743H185Q202 743 210 733Z" />
<glyph unicode="&#x201a;" glyph-name="quotesinglbase" horiz-adv-x="250" d="M109 84T117 74T124 44L122 35Q118 4 104 -28T68 -88Q51 -110 41 -118T21 -126Q10 -126 -2 -116Q29 -86 47 -60T74 0H70Q56 0 48 7T40 28Q40 34 41 37L42 47Q44 63 55 73T82 84H92Q109
84 117 74Z" />
<glyph unicode="&#x201c;" glyph-name="quotedblleft" horiz-adv-x="400" d="M286 735T296 743T317 751Q329 751 339 741Q308 711 290 685T263 625H267Q283 625 291 615T297 588L296 579Q294 562 283 552T255 542H245Q231 542 222 550T213 572L214 581L215 591Q219
621 233 653T269 713Q286 735 296 743ZM458 711T440 685T413 625H417Q433 625 441 615T447 588L446 579Q444 562 433 552T405 542H395Q381 542 372 550T363 572L364 581L365 591Q369 621 383 653T419 713Q436 735 446 743T467 751Q479 751 489 741Q458 711 440
685Z" />
<glyph unicode="&#x201d;" glyph-name="quotedblright" horiz-adv-x="400" d="M352 743T360 733T367 703L365 694Q361 663 347 631T311 571Q294 549 284 541T264 533Q253 533 241 543Q272 573 290 599T317 659H313Q299 659 291 666T283 687Q283 693 284 696L285
706Q287 722 298 732T325 743H335Q352 743 360 733ZM202 743T210 733T217 703L215 694Q211 663 197 631T161 571Q144 549 134 541T114 533Q103 533 91 543Q122 573 140 599T167 659H163Q149 659 141 666T133 687Q133 693 134 696L135 706Q137 722 148 732T175 743H185Q202
743 210 733Z" />
<glyph unicode="&#x201e;" glyph-name="quotedblbase" horiz-adv-x="400" d="M259 84T267 74T274 44L272 35Q268 4 254 -28T218 -88Q201 -110 191 -118T171 -126Q160 -126 148 -116Q179 -86 197 -60T224 0H220Q206 0 198 7T190 28Q190 34 191 37L192 47Q194 63
205 73T232 84H242Q259 84 267 74ZM109 84T117 74T124 44L122 35Q118 4 104 -28T68 -88Q51 -110 41 -118T21 -126Q10 -126 -2 -116Q29 -86 47 -60T74 0H70Q56 0 48 7T40 28Q40 34 41 37L42 47Q44 63 55 73T82 84H92Q109 84 117 74Z" />
<glyph unicode="&#x2022;" glyph-name="bullet" horiz-adv-x="560" d="M179 197T137 238T94 347Q94 406 121 454T196 529T301 557Q372 557 415 515T458 405Q458 347 430 299T354 224T250 197Q179 197 137 238Z" />
<glyph unicode="&#x2039;" glyph-name="guilsinglleft" horiz-adv-x="340" d="M53 288L204 452H251L109 288L204 117H157L53 288Z" />
<glyph unicode="&#x203a;" glyph-name="guilsinglright" horiz-adv-x="340" d="M287 281L136 117H89L231 281L136 452H183L287 281Z" />
</font>
</defs>
</svg>
