<?xml version="1.0" standalone="no"?>
<!DOCTYPE svg PUBLIC "-//W3C//DTD SVG 1.1//EN" "http://www.w3.org/Graphics/SVG/1.1/DTD/svg11.dtd">
<svg xmlns="http://www.w3.org/2000/svg">
<defs >
<font id="Krub" horiz-adv-x="557" ><font-face
    font-family="Krub Light"
    units-per-em="1000"
    panose-1="0 0 4 0 0 0 0 0 0 0"
    ascent="1007"
    descent="-293"
    alphabetic="0" />
<glyph unicode=" " glyph-name="space" horiz-adv-x="258" />
<glyph unicode="!" glyph-name="exclam" horiz-adv-x="246" d="M91 700H156L145 206H101L91 700ZM82 0T82 38V46Q82 84 120 84H127Q164 84 164 46V38Q164 0 127 0H120Q82 0 82 38Z" />
<glyph unicode="&quot;" glyph-name="quotedbl" horiz-adv-x="324" d="M62 737H123L113 505H72L62 737ZM201 737H262L252 505H211L201 737Z" />
<glyph unicode="#" glyph-name="numbersign" horiz-adv-x="540" d="M408 443L378 255H489V215H371L337 0H294L328 215H178L144 0H101L135 215H25V255H142L172 443H51V483H178L213 700H256L221 483H371L406 700H449L414 483H515V443H408ZM365 443H215L185 255H335L365
443Z" />
<glyph unicode="$" glyph-name="dollar" horiz-adv-x="609" d="M555 106T496 53T331 -9V-120H279V-10Q213 -7 158 15T71 72T39 150Q39 166 49 175T79 186Q92 122 144 84T279 40V343Q161 371 110 414T59 529Q59 611 117 659T279 710V809H331V708Q410 699 464 657T537
545Q528 534 507 534Q495 534 487 540T471 561Q430 644 331 659V384Q418 360 466 335T534 276T555 191Q555 106 496 53ZM117 480T152 452T279 397V662Q199 660 158 627T117 529Q117 480 152 452ZM407 50T451 88T496 185Q496 240 459 273T331 330V42Q407 50 451
88Z" />
<glyph unicode="%" glyph-name="percent" horiz-adv-x="860" d="M601 710H653L259 -10H207L601 710ZM172 362T131 408T90 530Q90 609 130 654T237 700Q305 700 346 655T387 530Q387 453 346 408T237 362Q172 362 131 408ZM285 405T312 437T339 531Q339 595 313
626T237 657Q192 657 165 626T138 534Q138 472 165 439T237 405Q285 405 312 437ZM555 0T514 46T473 168Q473 247 513 292T620 338Q688 338 729 293T770 168Q770 91 729 46T620 0Q555 0 514 46ZM668 43T695 75T722 169Q722 233 696 264T620 295Q575 295 548 264T521
172Q521 110 548 77T620 43Q668 43 695 75Z" />
<glyph unicode="&amp;" glyph-name="ampersand" horiz-adv-x="687" d="M525 56T551 46T616 35V16Q616 1 607 -4T575 -10Q547 -10 519 5T454 59Q368 -10 252 -10Q195 -10 147 10T70 72T40 171Q40 240 74 287T193 385Q159 437 143 476T127 556Q127 601 148 636T205
690T286 710Q351 710 392 672T434 569Q434 510 393 467T262 371Q297 321 354 248T452 129Q488 172 509 229T533 348Q558 348 568 338T579 300Q579 254 556 196T488 91Q525 56 551 46ZM238 665T209 638T179 558Q179 526 193 490T235 409Q312 452 346 488T381 571Q381
612 355 638T283 665Q238 665 209 638ZM93 126T116 96T177 51T255 35Q349 35 420 96Q369 154 313 224T220 346Q152 303 123 265T93 167Q93 126 116 96Z" />
<glyph unicode="&apos;" glyph-name="quotesingle" horiz-adv-x="223" d="M84 737H140L132 505H92L84 737Z" />
<glyph unicode="(" glyph-name="parenleft" horiz-adv-x="390" d="M163 3T122 130T80 380Q80 501 121 627T241 854H298Q211 737 174 621T137 380Q137 254 174 138T298 -96H241Q163 3 122 130Z" />
<glyph unicode=")" glyph-name="parenright" horiz-adv-x="390" d="M92 -96Q179 21 216 138T254 380Q254 504 217 620T92 854H149Q227 754 268 628T310 380Q310 258 269 131T149 -96H92Z" />
<glyph unicode="*" glyph-name="asterisk" horiz-adv-x="618" d="M169 558L289 701L104 742L124 797L295 732L281 912H340L327 732L499 797L519 742L333 701L453 558L405 526L311 683L217 526L169 558Z" />
<glyph unicode="+" glyph-name="plus" horiz-adv-x="600" d="M276 302H50V347H276V568H325V347H550V302H325V80H276V302Z" />
<glyph unicode="," glyph-name="comma" horiz-adv-x="308" d="M175 84T185 74T195 44V35Q195 4 185 -29T158 -88Q144 -110 135 -118T116 -126Q103 -126 93 -116Q119 -86 133 -59T152 0H148Q132 0 123 10T113 37V47Q113 63 122 73T148 84H158Q175 84 185 74Z" />
<glyph unicode="-" glyph-name="hyphen" horiz-adv-x="480" d="M60 324H420V277H60V324Z" />
<glyph unicode="." glyph-name="period" horiz-adv-x="308" d="M113 0T113 38V46Q113 84 151 84H158Q195 84 195 46V38Q195 0 158 0H151Q113 0 113 38Z" />
<glyph unicode="/" glyph-name="slash" horiz-adv-x="334" d="M292 811H344L42 -55H-10L292 811Z" />
<glyph unicode="0" glyph-name="zero" horiz-adv-x="620" d="M183 -12T117 79T50 338Q50 515 116 612T310 710Q437 710 503 613T570 338Q570 171 504 80T310 -12Q183 -12 117 79ZM412 38T464 115T516 338Q516 495 464 577T310 660Q208 660 156 578T104 338Q104
192 156 115T310 38Q412 38 464 115Z" />
<glyph unicode="1" glyph-name="one" horiz-adv-x="459" d="M382 45V0H78V45H209V627Q182 601 147 582T85 562Q68 562 60 570T51 590Q51 599 55 604Q143 611 229 700H260V45H382Z" />
<glyph unicode="2" glyph-name="two" horiz-adv-x="537" d="M476 420T435 349T327 209T153 49H471V0H52V26Q185 135 263 212T381 359T421 499Q421 576 382 614T271 652Q195 652 155 611T106 483Q84 483 74 491T63 517Q63 567 87 609T159 675T271 700Q366 700 421
648T476 492Q476 420 435 349Z" />
<glyph unicode="3" glyph-name="three" horiz-adv-x="550" d="M412 350T448 309T485 197Q485 101 423 46T250 -9Q187 -9 137 7T58 48T30 96Q30 111 39 120T63 130Q91 89 133 64T251 38Q336 38 384 80T432 196Q432 265 389 301T274 338L237 337Q211 335 197 335Q185
335 177 348T169 374Q169 383 176 383H265Q336 383 374 418T413 525Q413 587 373 620T254 653Q129 653 82 536Q67 536 58 544T48 568Q48 596 75 627T151 679T256 700Q350 700 407 655T465 523Q465 460 436 420T361 363Q412 350 448 309Z" />
<glyph unicode="4" glyph-name="four" horiz-adv-x="522" d="M331 173H20V199Q120 340 171 454T230 700Q235 701 243 701Q280 701 280 655Q280 569 223 445T92 221H331V452H383V221H496V173H383V0H331V173Z" />
<glyph unicode="5" glyph-name="five" horiz-adv-x="556" d="M356 453T406 425T485 347T514 230Q514 159 486 105T406 21T285 -9Q226 -9 179 10T104 57T76 114Q76 144 107 150Q126 99 172 69T285 39Q368 39 413 90T459 226Q459 313 415 359T288 405Q240 405 199
383T126 320L87 327L111 700H456V652H159L143 402Q201 453 292 453Q356 453 406 425Z" />
<glyph unicode="6" glyph-name="six" horiz-adv-x="577" d="M358 449T408 421T485 339T513 216Q513 153 486 102T408 22T289 -7Q211 -7 157 31T77 134T50 278Q50 393 97 491T220 647T381 705Q426 705 426 659Q347 659 283 625T175 528T114 384Q146 411 193 430T292
449Q358 449 408 421ZM370 42T415 90T461 216Q461 307 415 353T292 400Q237 400 187 376T104 313Q103 302 103 278Q103 175 150 109T291 42Q370 42 415 90Z" />
<glyph unicode="7" glyph-name="seven" horiz-adv-x="482" d="M456 700V672Q343 488 294 350T236 72L232 0H208Q172 0 173 44L174 79Q178 207 238 359T395 653L87 652Q67 652 58 659T49 681Q49 690 52 700H456Z" />
<glyph unicode="8" glyph-name="eight" horiz-adv-x="564" d="M443 334T478 288T513 173Q513 88 450 40T282 -9Q178 -9 115 39T52 173Q52 241 88 287T207 362Q139 388 106 427T73 525Q73 608 130 656T282 705Q377 705 433 657T490 525Q490 467 459 427T360 362Q443
334 478 288ZM127 418T284 382Q367 403 401 437T436 528Q436 590 395 624T282 658Q212 658 170 624T127 528Q127 418 284 382ZM358 39T408 74T458 173Q458 235 419 273T285 339Q193 314 150 276T107 173Q107 110 156 75T282 39Q358 39 408 74Z" />
<glyph unicode="9" glyph-name="nine" horiz-adv-x="577" d="M397 700T455 620T513 413Q513 298 466 201T343 47T182 -10Q137 -10 137 37Q255 37 339 111T450 307Q419 281 373 263T275 245Q208 245 157 273T78 353T50 473Q50 537 78 589T157 670T274 700Q397 700
455 620ZM331 294T379 316T460 378Q461 389 461 413Q461 518 415 584T272 651Q194 651 149 601T103 473Q103 384 150 339T275 294Q331 294 379 316Z" />
<glyph unicode=":" glyph-name="colon" horiz-adv-x="324" d="M113 362T113 400V408Q113 446 151 446H158Q195 446 195 408V400Q195 362 158 362H151Q113 362 113 400ZM113 0T113 38V46Q113 84 151 84H158Q195 84 195 46V38Q195 0 158 0H151Q113 0 113 38Z" />
<glyph unicode=";" glyph-name="semicolon" horiz-adv-x="324" d="M175 84T185 74T195 44V35Q195 4 185 -29T158 -88Q144 -110 135 -118T116 -126Q103 -126 93 -116Q119 -86 133 -59T152 0H148Q132 0 123 10T113 37V47Q113 63 122 73T148 84H158Q175 84 185 74ZM113
362T113 400V408Q113 446 151 446H158Q195 446 195 408V400Q195 362 158 362H151Q113 362 113 400Z" />
<glyph unicode="&lt;" glyph-name="less" horiz-adv-x="600" d="M550 538L115 304L550 68V8L50 282V326L550 598V538Z" />
<glyph unicode="=" glyph-name="equal" horiz-adv-x="600" d="M70 458H530V411H70V458ZM70 254H530V207H70V254Z" />
<glyph unicode="&gt;" glyph-name="greater" horiz-adv-x="600" d="M550 326V282L50 8V68L485 304L50 538V598L550 326Z" />
<glyph unicode="?" glyph-name="question" horiz-adv-x="475" d="M193 229Q193 276 217 308T291 383Q324 411 342 430T374 474T387 530Q387 590 348 625T240 660Q124 660 82 534L33 558Q51 625 107 667T242 709Q328 709 384 662T441 529Q441 489 427 458T391 406T335
355Q289 317 267 288T244 215V189H193V229ZM179 0T179 38V46Q179 84 217 84H224Q261 84 261 46V38Q261 0 224 0H217Q179 0 179 38Z" />
<glyph unicode="@" glyph-name="at" horiz-adv-x="834" d="M556 270Q551 233 551 219Q551 186 584 186Q620 186 652 213T705 292T725 408Q725 487 687 547T583 641T433 674Q341 674 270 632T159 517T119 350Q119 248 161 174T277 62T445 23Q516 23 565 41T658
92Q664 88 668 81T672 65Q672 46 641 26T557 -7T445 -20Q333 -20 249 23T119 149T72 352Q72 456 118 539T246 669T432 717Q532 717 609 678T729 569T772 406Q772 326 746 266T675 175T580 143Q552 143 532 158T508 202Q492 176 463 160T393 143Q326 143 288 187T250
310Q250 412 298 475T428 539Q468 539 497 523T541 475L549 523H597L556 270ZM454 183T487 238T520 375Q520 500 427 500Q369 500 337 448T304 309Q304 183 395 183Q454 183 487 238Z" />
<glyph unicode="A" glyph-name="A" horiz-adv-x="620" d="M524 112T497 203H124Q94 101 74 0H15Q60 207 124 375T283 700H338Q432 544 496 376T605 0H546Q524 112 497 203ZM482 253Q413 470 310 640Q209 474 139 253H482Z" />
<glyph unicode="B" glyph-name="B" horiz-adv-x="615" d="M503 343T537 299T571 189Q571 97 509 49T331 0H86V700H321Q425 700 484 652T543 516Q543 459 517 417T444 357Q503 343 537 299ZM485 580T442 615T321 650H143V376H319Q399 376 442 412T485 516Q485 580
442 615ZM424 50T468 83T513 189Q513 263 468 295T320 328H143V50H325Q424 50 468 83Z" />
<glyph unicode="C" glyph-name="C" horiz-adv-x="596" d="M209 -10T131 84T52 350Q52 523 130 616T352 710Q410 710 460 691T546 633Q542 619 533 611T513 602Q499 602 489 611Q457 636 424 647T350 658Q235 658 173 578T111 350Q111 204 173 124T350 43Q404 43
443 57T514 104Q526 103 533 96T540 78Q540 56 513 36T443 3T352 -10Q209 -10 131 84Z" />
<glyph unicode="D" glyph-name="D" horiz-adv-x="672" d="M448 700T531 610T615 350Q615 242 577 163T466 42T293 0H86V700H293Q448 700 531 610ZM420 50T488 128T556 349Q556 498 490 574T293 650H143V50H293Q420 50 488 128Z" />
<glyph unicode="E" glyph-name="E" horiz-adv-x="560" d="M505 50Q505 21 497 11T465 0H86V700H504V650H143V388H456V338H143V50H505Z" />
<glyph unicode="F" glyph-name="F" horiz-adv-x="530" d="M143 650V383H455V333H143V0H86V700H498V650H143Z" />
<glyph unicode="G" glyph-name="G" horiz-adv-x="666" d="M604 368V73Q567 35 506 13T377 -10Q226 -10 144 83T62 350Q62 521 145 615T377 710Q449 710 508 687T601 623Q595 610 586 602T567 594Q553 594 539 605Q504 633 465 646T376 659Q252 659 187 580T121
350Q121 199 186 121T376 42Q431 42 476 57T547 99V317H388Q369 317 362 328T354 368H604Z" />
<glyph unicode="H" glyph-name="H" horiz-adv-x="680" d="M594 700V0H536V340H144V0H86V700H144V389H536V700H594Z" />
<glyph unicode="I" glyph-name="I" horiz-adv-x="350" d="M147 700H204V0H147V700Z" />
<glyph unicode="J" glyph-name="J" horiz-adv-x="427" d="M111 -10T77 -2T24 17Q24 37 30 48T46 60Q54 60 69 54Q73 53 96 47T149 40Q282 40 282 183V700H339V183Q339 91 289 41T147 -10Q111 -10 77 -2Z" />
<glyph unicode="K" glyph-name="K" horiz-adv-x="610" d="M585 3Q571 -8 550 -8Q536 -8 528 -2T507 22L351 269Q333 297 317 310T279 329T219 335H157V0H100V700H157V385H237Q249 385 267 383L509 700H577L319 368Q361 347 400 288L585 3Z" />
<glyph unicode="L" glyph-name="L" horiz-adv-x="513" d="M498 49V0H86V700H143V49H498Z" />
<glyph unicode="M" glyph-name="M" horiz-adv-x="829" d="M696 0Q682 360 637 619Q583 504 540 388T436 75H394Q341 246 297 364T192 616Q147 355 133 0H76Q93 428 151 700H211Q283 551 329 435T415 189Q454 317 500 433T618 700H678Q736 428 753 0H696Z" />
<glyph unicode="N" glyph-name="N" horiz-adv-x="690" d="M600 106T602 64Q604 36 604 27Q604 0 578 0H543V64Q543 92 536 113T509 159L143 622V0H86V700H133Q143 700 149 697T163 684L543 203V700H600V137Q600 106 602 64Z" />
<glyph unicode="O" glyph-name="O" horiz-adv-x="680" d="M198 -10T123 84T48 354Q48 527 123 618T340 710Q482 710 557 619T632 354Q632 178 557 84T340 -10Q198 -10 123 84ZM456 42T514 120T573 354Q573 658 340 658Q107 658 107 354Q107 199 166 121T340 42Q456
42 514 120Z" />
<glyph unicode="P" glyph-name="P" horiz-adv-x="615" d="M431 700T501 644T572 477Q572 365 502 308T294 251H143V0H86V700H294Q431 700 501 644ZM406 302T460 345T515 477Q515 564 461 606T294 649H143V302H294Q406 302 460 345Z" />
<glyph unicode="Q" glyph-name="Q" horiz-adv-x="680" d="M632 225T591 139T471 16Q493 -15 530 -62Q512 -82 488 -82Q468 -82 451 -56L416 -2Q379 -10 340 -10Q198 -10 123 84T48 354Q48 527 123 618T340 710Q482 710 557 619T632 354Q632 225 591 139ZM573 118T573
354Q573 658 340 658Q107 658 107 354Q107 199 166 121T340 42Q365 42 386 45Q351 101 319 149H380Q409 103 439 61Q573 118 573 354Z" />
<glyph unicode="R" glyph-name="R" horiz-adv-x="629" d="M585 3Q571 -8 550 -8Q536 -8 527 -2T507 22L388 217Q360 263 327 280T232 297H143V0H86V700H313Q437 700 504 648T572 498Q572 419 521 365T386 299Q418 274 441 238L585 3ZM308 347Q407 347 459 386T512
498Q512 649 313 649H143V347H308Z" />
<glyph unicode="S" glyph-name="S" horiz-adv-x="642" d="M256 -10T197 11T104 70T69 150Q69 166 79 175T109 186Q123 118 180 79T327 40Q417 40 471 80T526 185Q526 226 507 254T443 302T320 340Q196 369 143 413T89 529Q89 613 151 661T321 710Q415 710 480
667T567 545Q558 534 537 534Q525 534 517 540T501 561Q477 610 431 636T321 662Q235 662 191 629T147 529Q147 495 164 471T220 429T329 392Q430 366 484 340T562 280T585 191Q585 98 516 44T325 -10Q256 -10 197 11Z" />
<glyph unicode="T" glyph-name="T" horiz-adv-x="534" d="M523 686T523 679Q523 650 492 650H298V0H241V650H15V700H519Q523 686 523 679Z" />
<glyph unicode="U" glyph-name="U" horiz-adv-x="708" d="M219 -10T153 54T86 251V700H143V246Q143 141 195 91T356 40Q466 40 517 90T568 246V700H625V251Q625 117 560 54T356 -10Q219 -10 153 54Z" />
<glyph unicode="V" glyph-name="V" horiz-adv-x="638" d="M608 700Q542 311 350 0H290Q95 315 30 700H92Q149 344 320 61Q491 347 546 700H608Z" />
<glyph unicode="W" glyph-name="W" horiz-adv-x="856" d="M841 700Q819 551 778 393T656 0H594Q521 244 488 361T433 572Q409 468 374 342T272 0H210Q130 224 85 385T15 700H72Q113 447 240 78Q284 209 323 349T415 700H447Q514 451 551 321T626 79Q749 442 788 700H841Z" />
<glyph unicode="X" glyph-name="X" horiz-adv-x="582" d="M392 310T434 262T509 148T558 0H496Q485 70 456 128T387 232T291 333Q234 278 195 232T127 128T86 0H24Q39 82 72 147T148 261T253 370Q194 426 155 471T84 574T39 700H99Q118 612 165 546T291 406Q370
480 417 546T483 700H543Q529 631 498 574T428 472T329 370Q392 310 434 262Z" />
<glyph unicode="Y" glyph-name="Y" horiz-adv-x="590" d="M570 700L324 294V0H267V294L20 700H83L296 342L508 700H570Z" />
<glyph unicode="Z" glyph-name="Z" horiz-adv-x="580" d="M528 50V0H54V50L457 650H52V700H520V651L123 50H528Z" />
<glyph unicode="[" glyph-name="bracketleft" horiz-adv-x="389" d="M107 842H305V799H162V-42H305V-85H107V842Z" />
<glyph unicode="\" glyph-name="backslash" horiz-adv-x="334" d="M292 -55L-10 811H42L344 -55H292Z" />
<glyph unicode="]" glyph-name="bracketright" horiz-adv-x="389" d="M84 -85V-42H227V799H84V842H282V-85H84Z" />
<glyph unicode="^" glyph-name="asciicircum" horiz-adv-x="657" d="M302 791H351L595 324H538L325 731L119 324H62L302 791Z" />
<glyph unicode="_" glyph-name="underscore" horiz-adv-x="684" d="M0 -102H684V-150H0V-102Z" />
<glyph unicode="`" glyph-name="grave" horiz-adv-x="243" d="M9 783H73L175 632H119L9 783Z" />
<glyph unicode="a" glyph-name="a" horiz-adv-x="558" d="M476 86T483 61T510 17Q505 8 494 2T473 -5Q452 -5 439 21T422 92Q388 45 332 18T213 -10Q141 -10 96 30T50 135Q50 228 144 280T421 341V373Q421 514 278 514Q228 514 186 495T102 434Q97 429 88 429Q79
429 69 436T51 456Q94 506 154 533T281 560Q373 560 424 511T476 373V132Q476 86 483 61ZM276 36T329 68T421 160V295Q262 288 184 249T106 136Q106 89 136 63T218 36Q276 36 329 68Z" />
<glyph unicode="b" glyph-name="b" horiz-adv-x="610" d="M440 560T502 488T565 284Q565 145 502 68T323 -10Q270 -10 227 7T153 55Q149 29 141 14T122 -1Q102 -1 82 12Q101 54 101 132V791H157V506Q192 532 236 546T328 560Q440 560 502 488ZM411 38T460 103T509
284Q509 394 462 454T328 514Q234 514 157 454V112Q187 77 230 58T323 38Q411 38 460 103Z" />
<glyph unicode="c" glyph-name="c" horiz-adv-x="549" d="M214 -10T158 25T71 125T40 278Q40 363 71 427T159 525T292 560Q383 560 441 513T508 387Q500 383 489 380T470 377Q461 377 457 382T448 405Q436 456 395 485T292 514Q234 514 190 485T121 402T96 278Q96
206 120 152T188 67T291 37Q357 37 403 66T474 153Q485 153 493 144T501 121Q501 88 472 58T393 9T291 -10Q214 -10 158 25Z" />
<glyph unicode="d" glyph-name="d" horiz-adv-x="598" d="M507 48T521 8Q502 -4 486 -4Q459 -4 453 64Q391 -10 278 -10Q169 -10 107 65T45 273Q45 408 110 484T292 560Q334 560 378 546T452 509V791H507V128Q507 48 521 8ZM388 37T452 121V454Q420 483 378 499T292
515Q202 515 152 451T101 273Q101 161 149 99T283 37Q388 37 452 121Z" />
<glyph unicode="e" glyph-name="e" horiz-adv-x="560" d="M520 286T518 268H106Q109 161 158 100T290 38Q346 38 384 59T452 127Q463 144 476 144Q487 144 509 130Q484 63 427 27T290 -10Q217 -10 163 25T80 124T50 276Q50 410 114 485T294 560Q401 560 460 493T520
307Q520 286 518 268ZM464 314Q464 411 420 461T291 512Q211 512 163 460T107 314H464Z" />
<glyph unicode="f" glyph-name="f" horiz-adv-x="335" d="M302 782T326 772T350 741Q350 733 347 726T338 719Q312 735 264 735Q218 735 194 707T170 623V550H307V506H170V0H115V506H12V550H115V624Q115 697 154 739T259 782Q302 782 326 772Z" />
<glyph unicode="g" glyph-name="g" horiz-adv-x="585" d="M548 579T556 572T564 545Q564 535 563 530Q485 530 452 503Q500 455 500 376Q500 184 279 184Q204 184 172 174T139 140Q139 112 175 102T304 91Q422 91 484 56T546 -46Q546 -125 483 -163T289 -202Q174
-202 112 -166T50 -60Q50 -16 77 14T155 59V62Q125 69 108 89T90 137Q90 165 110 184T168 209Q123 233 98 273T72 364Q72 560 298 560Q369 560 419 529Q445 552 474 565T530 579Q548 579 556 572ZM367 231T405 264T443 372Q443 445 405 480T285 515Q128 515 128
372Q128 304 168 268T285 231Q367 231 405 264ZM489 -2T444 20T293 42Q197 42 152 20T107 -52Q107 -105 151 -130T289 -155Q393 -155 441 -131T489 -52Q489 -2 444 20Z" />
<glyph unicode="h" glyph-name="h" horiz-adv-x="630" d="M436 560T487 510T539 376V0H484V369Q484 439 448 476T344 513Q297 513 244 493T146 438V0H91V791H146V492Q244 560 350 560Q436 560 487 510Z" />
<glyph unicode="i" glyph-name="i" horiz-adv-x="289" d="M117 550H172V0H117V550ZM380 659T370 669T360 697V705Q360 723 370 732T398 742H405Q442 742 442 705V697Q442 679 433 669T405 659H398Q380 659 370 669Z" />
<glyph unicode="j" glyph-name="j" horiz-adv-x="270" d="M10 -192T-13 -186T-47 -171Q-54 -164 -54 -153Q-54 -144 -51 -137T-42 -129Q-14 -144 35 -144Q69 -144 88 -124T107 -63V550H162V-58Q162 -123 127 -157T33 -192Q10 -192 -13 -186ZM369 659T359 669T349
697V705Q349 723 359 732T387 742H394Q431 742 431 705V697Q431 679 422 669T394 659H387Q369 659 359 669Z" />
<glyph unicode="k" glyph-name="k" horiz-adv-x="547" d="M527 0Q517 0 503 -1T480 -3Q464 -3 455 11L328 215Q309 246 281 257T205 268L146 265V0H91V791H146V314L198 315Q227 316 243 323T276 354L429 550H495L321 333Q314 325 306 316T289 302Q345 290 373 244L527 0Z" />
<glyph unicode="l" glyph-name="l" horiz-adv-x="269" d="M107 791H162V0H107V791Z" />
<glyph unicode="m" glyph-name="m" horiz-adv-x="912" d="M729 560T775 516T821 395V0H766V392Q766 515 642 515Q598 515 556 495T479 437Q482 419 482 399V0H427V397Q427 455 400 485T319 515Q226 515 146 432V0H91V388Q91 464 89 496T79 539Q102 554 120 554Q146
554 146 491V487Q225 560 326 560Q373 560 408 540T463 482Q541 560 651 560Q729 560 775 516Z" />
<glyph unicode="n" glyph-name="n" horiz-adv-x="610" d="M520 67T523 46T535 7Q527 2 517 -1T496 -5Q479 -5 472 19T465 102V373Q465 447 436 481T342 516Q293 516 242 492T145 424V0H90V388Q90 464 88 496T78 539Q101 554 119 554Q133 554 139 539T145 491V480Q240
560 349 560Q435 560 477 514T520 372V118Q520 67 523 46Z" />
<glyph unicode="o" glyph-name="o" horiz-adv-x="548" d="M158 -10T99 62T40 276Q40 560 274 560Q508 560 508 276Q508 134 449 62T274 -10Q158 -10 99 62ZM365 37T408 95T452 276Q452 398 409 456T274 514Q183 514 140 456T96 276Q96 154 139 96T274 37Q365 37 408 95Z" />
<glyph unicode="p" glyph-name="p" horiz-adv-x="598" d="M438 560T498 488T558 276Q558 188 528 124T442 25T308 -10Q219 -10 147 26V-220H92V388Q92 461 90 494T80 541Q101 554 120 554Q147 554 147 495V489Q182 523 228 541T323 560Q438 560 498 488ZM398 36T449
100T501 276Q501 393 456 453T323 514Q275 514 229 492T147 429V76Q181 57 222 47T308 36Q398 36 449 100Z" />
<glyph unicode="q" glyph-name="q" horiz-adv-x="608" d="M507 554T526 541Q518 521 513 480T507 393V-220H452V37Q416 13 376 2T285 -10Q212 -10 158 25T74 125T45 278Q45 364 74 428T158 526T286 560Q339 560 378 546T456 500Q464 554 489 554Q507 554 526 541ZM344
35T382 47T452 87V433V444Q387 515 288 515Q200 515 151 453T102 278Q102 160 151 98T294 35Q344 35 382 47Z" />
<glyph unicode="r" glyph-name="r" horiz-adv-x="400" d="M339 557T358 547T378 517Q378 500 367 492Q344 506 300 506Q254 506 218 480T161 409T140 305V0H85V550H140V447Q165 495 210 526T305 557Q339 557 358 547Z" />
<glyph unicode="s" glyph-name="s" horiz-adv-x="485" d="M192 -10T145 5T69 46T40 98Q40 110 47 119T66 130Q96 83 137 60T247 36Q314 36 352 66T390 149Q390 183 370 204T319 236T236 261Q177 276 141 290T79 333T53 411Q53 461 80 494T149 544T238 560Q302
560 350 534T430 457Q419 446 412 442T396 437Q384 437 373 451Q347 483 316 499T237 515Q180 515 144 490T108 414Q108 382 128 362T177 330T257 307Q318 291 355 276T419 231T445 149Q445 76 391 33T243 -10Q192 -10 145 5Z" />
<glyph unicode="t" glyph-name="t" horiz-adv-x="374" d="M356 49T356 31Q356 14 342 6Q311 -10 254 -10Q192 -10 154 27T116 126V505H12V550H116V700H171V550H328V505H171V137Q171 88 193 63T256 38Q302 38 342 57Q356 49 356 31Z" />
<glyph unicode="u" glyph-name="u" horiz-adv-x="610" d="M517 55T532 7Q516 -5 497 -5Q479 -5 472 14T462 82Q432 40 379 15T267 -10Q179 -10 135 38T90 180V550H145V182Q145 110 178 73T276 35Q330 35 379 64T462 145V550H517V113Q517 55 532 7Z" />
<glyph unicode="v" glyph-name="v" horiz-adv-x="483" d="M467 550Q454 400 405 265T268 0H216Q129 123 81 257T16 550H71Q85 407 126 289T241 59Q317 173 358 292T412 550H467Z" />
<glyph unicode="w" glyph-name="w" horiz-adv-x="760" d="M724 550Q683 257 563 0H516Q463 114 430 216T378 423Q360 317 328 215T244 0H195Q135 125 96 259T33 550H90Q106 419 138 303T222 75Q316 281 353 550H405Q446 274 541 73Q643 307 665 550H724Z" />
<glyph unicode="x" glyph-name="x" horiz-adv-x="484" d="M363 207T411 142T468 0H410Q402 65 360 122T242 253Q167 180 125 123T74 0H16Q25 77 73 142T205 288Q125 364 81 423T28 550H86Q93 494 132 443T242 323Q313 391 352 442T398 550H456Q448 483 404 424T279
288Q363 207 411 142Z" />
<glyph unicode="y" glyph-name="y" horiz-adv-x="485" d="M474 550L256 -42Q227 -121 185 -157T80 -193Q44 -193 23 -183T1 -156Q1 -139 17 -130Q27 -137 46 -141T86 -146Q129 -146 162 -108T220 9L14 550H72L248 90L416 550H474Z" />
<glyph unicode="z" glyph-name="z" horiz-adv-x="500" d="M470 48V0H30V38L389 503H56V550H462V514L105 48H470Z" />
<glyph unicode="{" glyph-name="braceleft" horiz-adv-x="364" d="M186 -91T155 -60T123 30V248Q123 286 107 310T48 341V370Q90 377 106 401T123 464V682Q123 740 154 771T235 802H278V759H243Q211 759 193 741T174 680V474Q174 420 157 394T102 357V354Q138
345 156 318T174 238V32Q174 -48 243 -48H278V-91H235Q186 -91 155 -60Z" />
<glyph unicode="|" glyph-name="bar" horiz-adv-x="242" d="M97 802H145V-12H97V802Z" />
<glyph unicode="}" glyph-name="braceright" horiz-adv-x="364" d="M86 -91V-48H121Q190 -48 190 32V238Q190 291 208 318T263 354V357Q225 367 208 393T190 474V680Q190 723 172 741T121 759H86V802H129Q178 802 210 771T242 682V464Q242 425 258 401T316 370V341Q274
334 258 311T242 248V30Q242 -28 210 -59T129 -91H86Z" />
<glyph unicode="~" glyph-name="asciitilde" horiz-adv-x="600" d="M50 251Q71 295 105 323T196 351Q229 351 254 340T312 307Q343 286 366 276T419 265Q456 265 477 287T513 351L550 325Q539 277 505 248T413 218Q379 218 354 229T294 263Q264 284 242 294T191
304Q126 304 88 218L50 251Z" />
<glyph unicode="&#xa0;" glyph-name="uni00A0" horiz-adv-x="258" />
<glyph unicode="&#xa1;" glyph-name="exclamdown" horiz-adv-x="243" d="M164 560T164 522V515Q164 477 127 477H120Q82 477 82 515V522Q82 560 120 560H127Q164 560 164 522ZM156 -140H91L101 354H145L156 -140Z" />
<glyph unicode="&#xa2;" glyph-name="cent" horiz-adv-x="547" d="M485 153T493 144T501 121Q501 88 472 58T393 9T291 -10Q246 -10 204 3L176 -80H126L160 23Q103 57 72 123T40 278Q40 363 71 427T159 525T292 560Q316 560 337 557L364 638H413L382 545Q436 526
469 485T508 387Q500 383 489 380T470 377Q461 377 457 382T448 405Q441 438 420 462T367 500L219 50Q255 37 291 37Q357 37 403 66T474 153Q485 153 493 144ZM96 211T117 159T177 75L322 512Q304 514 292 514Q234 514 190 485T121 402T96 278Q96 211 117 159Z"
/>
<glyph unicode="&#xa3;" glyph-name="sterling" horiz-adv-x="609" d="M518 161Q506 82 454 36T332 -10Q273 -10 231 6T149 54Q102 5 16 -10V46Q85 59 119 103T153 214Q153 255 135 325H13V373H123Q101 454 101 507Q101 568 127 614T199 685T305 710Q389 710 445
666T516 540Q499 526 480 526Q463 526 456 548Q438 607 402 635T305 663Q232 663 193 621T154 504Q154 453 175 373H369V325H188Q206 257 206 213Q206 141 177 91Q248 38 325 38Q442 38 467 173L518 161Z" />
<glyph unicode="&#xa4;" glyph-name="currency" horiz-adv-x="609" d="M43 131L98 186Q70 219 57 262T43 353Q43 452 98 519L43 574L82 614L140 557Q174 585 216 599T304 614Q401 614 470 557L526 614L566 574L511 519Q566 452 566 353Q566 248 511 186L566 131L526
91L470 146Q397 91 304 91Q259 91 217 105T140 146L82 91L43 131ZM364 142T411 169T484 244T510 353Q510 414 484 462T411 537T304 564Q245 564 199 537T126 462T99 353Q99 292 125 244T198 169T304 142Q364 142 411 169Z" />
<glyph unicode="&#xa5;" glyph-name="yen" horiz-adv-x="590" d="M371 371H512V325H343L324 294V219H512V173H324V0H267V173H78V219H267V294L248 325H78V371H220L20 700H83L296 342L508 700H570L371 371Z" />
<glyph unicode="&#xa6;" glyph-name="brokenbar" horiz-adv-x="242" d="M97 802H145V495H97V802ZM97 295H145V-12H97V295Z" />
<glyph unicode="&#xa7;" glyph-name="section" horiz-adv-x="480" d="M374 300T356 330T296 378L158 435Q110 455 86 484T61 560Q61 605 85 638T148 689T235 707Q314 707 361 668T413 565L364 556Q359 604 327 632T235 661Q177 661 144 635T111 560Q111 528 127
509T179 475L328 414Q377 394 400 352T424 254H374Q374 300 356 330ZM164 -88T115 -49T61 54L110 63Q115 15 149 -13T244 -42Q302 -42 335 -16T368 59Q368 91 352 110T300 144L156 205Q106 226 81 268T55 365H105Q105 277 188 241L324 184Q373 163 395 134T418
59Q418 14 394 -19T331 -70T244 -88Q164 -88 115 -49Z" />
<glyph unicode="&#xa8;" glyph-name="dieresis" horiz-adv-x="302" d="M36 653T26 663T16 691V699Q16 717 26 726T54 736H61Q98 736 98 699V691Q98 673 89 663T61 653H54Q36 653 26 663ZM224 653T214 663T204 691V699Q204 717 214 726T242 736H249Q286 736 286
699V691Q286 673 277 663T249 653H242Q224 653 214 663Z" />
<glyph unicode="&#xa9;" glyph-name="copyright" horiz-adv-x="774" d="M283 -10T201 36T73 164T27 350Q27 454 73 536T201 664T387 710Q491 710 573 664T701 536T747 350Q747 246 701 164T573 36T387 -10Q283 -10 201 36ZM476 33T547 73T659 186T700 350Q700
442 660 514T548 627T387 668Q298 668 227 628T116 515T75 350Q75 259 115 187T227 74T387 33Q476 33 547 73ZM341 132T296 159T226 236T201 351Q201 449 254 508T395 567Q463 567 506 535T567 442L522 424Q498 524 397 524Q326 524 288 479T250 351Q250 273 291
225T400 176Q446 176 476 197T521 257L566 241Q544 189 502 161T399 132Q341 132 296 159Z" />
<glyph unicode="&#xaa;" glyph-name="ordfeminine" horiz-adv-x="380" d="M333 419T334 404T340 370Q330 360 313 360Q287 360 287 416V420Q236 359 157 359Q110 359 78 384T46 451Q46 525 111 549T287 575V584Q287 629 263 651T195 674Q165 674 147 664T106 636Q96
628 91 625T79 622Q69 622 63 628T54 645Q106 712 201 712Q253 712 293 679T333 583V446Q333 419 334 404ZM201 398T236 420T287 472V538Q196 537 145 521T93 453Q93 398 164 398Q201 398 236 420Z" />
<glyph unicode="&#xab;" glyph-name="guillemotleft" horiz-adv-x="500" d="M225 288L353 452H400L281 288L400 117H353L225 288ZM70 288L198 452H245L126 288L245 117H198L70 288Z" />
<glyph unicode="&#xac;" glyph-name="logicalnot" horiz-adv-x="600" d="M493 317H50V362H540V132H493V317Z" />
<glyph unicode="&#xad;" glyph-name="uni00AD" horiz-adv-x="380" d="M40 324H340V277H40V324Z" />
<glyph unicode="&#xae;" glyph-name="registered" horiz-adv-x="774" d="M488 710T570 663T700 533T747 350Q747 250 700 168T571 38T387 -10Q286 -10 204 37T74 167T27 350Q27 451 74 533T203 662T387 710Q488 710 570 663ZM475 33T546 74T659 188T700 350Q700
439 659 512T547 626T387 668Q300 668 229 627T116 512T75 350Q75 261 116 189T228 75T387 33Q475 33 546 74ZM556 369T529 339T455 300L548 145H496L409 297H303V145H255V543H418Q556 543 556 420Q556 369 529 339ZM461 338T484 360T508 421Q508 459 485 481T416
503H303V338H412Q461 338 484 360Z" />
<glyph unicode="&#xaf;" glyph-name="overscore" horiz-adv-x="243" d="M-42 703H284V654H-42V703Z" />
<glyph unicode="&#xb0;" glyph-name="degree" horiz-adv-x="438" d="M174 481T138 503T80 561T59 642Q59 685 80 722T137 780T219 802Q264 802 300 781T358 722T379 642Q379 598 358 562T301 503T219 481Q174 481 138 503ZM270 523T302 556T334 642Q334 693 302
727T219 761Q169 761 137 727T104 642Q104 591 136 557T219 523Q270 523 302 556Z" />
<glyph unicode="&#xb1;" glyph-name="plusminus" horiz-adv-x="600" d="M278 356H40V400H278V629H324V400H560V356H324V125H278V356ZM40 44H560V0H40V44Z" />
<glyph unicode="&#xb2;" glyph-name="uni00B2" horiz-adv-x="333" d="M310 324V282H22V317Q25 319 30 322T41 330Q115 382 158 417T232 494T262 580Q262 623 238 645T169 668Q75 668 68 572Q30 572 30 599Q30 628 47 653T96 694T167 710Q232 710 269 676T307 575Q307
527 277 483T206 405T101 324H310Z" />
<glyph unicode="&#xb3;" glyph-name="uni00B3" horiz-adv-x="351" d="M289 499T309 474T330 408Q330 350 289 314T174 278Q135 278 101 288T45 316T24 350Q24 360 31 366T49 373Q73 346 102 332T177 318Q229 318 257 341T285 408Q285 485 188 485L145 484Q134
484 128 495T121 519Q121 526 127 526H182Q268 526 268 598Q268 632 246 651T181 671Q138 671 113 655T68 602Q58 602 51 609T43 629Q43 650 60 668T109 698T179 710Q241 710 278 681T315 598Q315 569 301 546T257 510Q289 499 309 474Z" />
<glyph unicode="&#xb4;" glyph-name="acute" horiz-adv-x="243" d="M184 783H249L132 632H77L184 783Z" />
<glyph unicode="&#xb6;" glyph-name="paragraph" horiz-adv-x="525" d="M243 328Q178 328 128 354T49 427T20 535Q20 638 82 694T261 750H525V709H446V0H398V709H291V0H243V328Z" />
<glyph unicode="&#xb7;" glyph-name="middot" horiz-adv-x="308" d="M113 238T113 276V284Q113 322 151 322H158Q195 322 195 284V276Q195 238 158 238H151Q113 238 113 276Z" />
<glyph unicode="&#xb8;" glyph-name="cedilla" horiz-adv-x="243" d="M169 -57T194 -77T220 -136Q220 -180 185 -204T99 -229Q54 -229 29 -219T4 -189Q4 -181 6 -176Q50 -189 94 -189Q169 -189 169 -137Q169 -118 155 -107T114 -95Q97 -95 74 -101L55 -75L111
0H161L115 -58Q119 -57 128 -57Q169 -57 194 -77Z" />
<glyph unicode="&#xb9;" glyph-name="uni00B9" horiz-adv-x="379" d="M302 322V282H76V322H171V649Q154 632 134 621T94 610Q79 610 72 619T64 642Q94 645 126 662T184 710H215V322H302Z" />
<glyph unicode="&#xba;" glyph-name="ordmasculine" horiz-adv-x="380" d="M116 357T76 405T36 533Q36 613 76 661T191 710Q265 710 304 662T344 533Q344 454 305 406T191 357Q116 357 76 405ZM242 396T270 430T298 533Q298 602 270 637T191 672Q139 672 111 637T82
533Q82 464 110 430T191 396Q242 396 270 430Z" />
<glyph unicode="&#xbb;" glyph-name="guillemotright" horiz-adv-x="500" d="M100 117L219 288L100 452H147L275 288L147 117H100ZM255 117L374 288L255 452H302L430 288L302 117H255Z" />
<glyph unicode="&#xbc;" glyph-name="onequarter" horiz-adv-x="1016" d="M302 322V282H76V322H171V649Q154 632 134 621T94 610Q79 610 72 619T64 642Q94 645 126 662T184 710H215V322H302ZM630 700H674L378 0H334L630 700ZM985 98H925V0H881V98H667V121Q725
200 758 271T797 423Q801 424 810 424Q840 424 840 392Q840 338 807 268T730 139H881V275H925V139H985V98Z" />
<glyph unicode="&#xbd;" glyph-name="onehalf" horiz-adv-x="962" d="M302 322V282H76V322H171V649Q154 632 134 621T94 610Q79 610 72 619T64 642Q94 645 126 662T184 710H215V322H302ZM630 700H674L378 0H334L630 700ZM939 43V1H651V36Q654 38 659 41T670 49Q744
101 787 136T861 213T891 299Q891 342 867 364T798 387Q704 387 697 291Q659 291 659 318Q659 347 676 372T725 413T796 429Q861 429 898 395T936 294Q936 246 906 202T835 124T730 43H939Z" />
<glyph unicode="&#xbe;" glyph-name="threequarters" horiz-adv-x="988" d="M289 499T309 474T330 408Q330 350 289 314T174 278Q135 278 101 288T45 316T24 350Q24 360 31 366T49 373Q73 346 102 332T177 318Q229 318 257 341T285 408Q285 485 188 485L145 484Q134
484 128 495T121 519Q121 526 127 526H182Q268 526 268 598Q268 632 246 651T181 671Q138 671 113 655T68 602Q58 602 51 609T43 629Q43 650 60 668T109 698T179 710Q241 710 278 681T315 598Q315 569 301 546T257 510Q289 499 309 474ZM602 700H646L350 0H306L602
700ZM957 98H897V0H853V98H639V121Q697 200 730 271T769 423Q773 424 782 424Q812 424 812 392Q812 338 779 268T702 139H853V275H897V139H957V98Z" />
<glyph unicode="&#xbf;" glyph-name="questiondown" horiz-adv-x="475" d="M296 552T296 514V507Q296 469 259 469H252Q214 469 214 507V514Q214 552 252 552H259Q296 552 296 514ZM283 323Q283 277 258 244T184 170Q136 129 112 98T88 22Q88 -38 127 -73T235
-108Q351 -108 393 18L442 -6Q424 -73 368 -115T233 -157Q178 -157 133 -136T61 -75T34 23Q34 63 48 94T84 146T140 197Q187 236 209 265T232 337V363H283V323Z" />
<glyph unicode="&#xc0;" glyph-name="Agrave" horiz-adv-x="620" d="M524 112T497 203H124Q94 101 74 0H15Q60 207 124 375T283 700H338Q432 544 496 376T605 0H546Q524 112 497 203ZM482 253Q413 470 310 640Q209 474 139 253H482ZM461 893H525L627 742H571L461 893Z" />
<glyph unicode="&#xc1;" glyph-name="Aacute" horiz-adv-x="620" d="M524 112T497 203H124Q94 101 74 0H15Q60 207 124 375T283 700H338Q432 544 496 376T605 0H546Q524 112 497 203ZM482 253Q413 470 310 640Q209 474 139 253H482ZM367 893H432L315 742H260L367 893Z" />
<glyph unicode="&#xc2;" glyph-name="Acircumflex" horiz-adv-x="620" d="M524 112T497 203H124Q94 101 74 0H15Q60 207 124 375T283 700H338Q432 544 496 376T605 0H546Q524 112 497 203ZM482 253Q413 470 310 640Q209 474 139 253H482ZM540 875H593L709 742H655L567
835L477 742H423L540 875Z" />
<glyph unicode="&#xc3;" glyph-name="Atilde" horiz-adv-x="620" d="M524 112T497 203H124Q94 101 74 0H15Q60 207 124 375T283 700H338Q432 544 496 376T605 0H546Q524 112 497 203ZM482 253Q413 470 310 640Q209 474 139 253H482ZM433 748T425 753T417 772Q417
807 442 827T504 848Q526 848 542 840T578 818Q597 806 608 800T634 794Q656 794 667 808T682 851Q699 851 708 843T717 821Q717 792 695 771T637 750Q613 750 597 757T557 780Q540 792 528 798T500 804Q477 804 465 791T448 748Q433 748 425 753Z" />
<glyph unicode="&#xc4;" glyph-name="Adieresis" horiz-adv-x="620" d="M524 112T497 203H124Q94 101 74 0H15Q60 207 124 375T283 700H338Q432 544 496 376T605 0H546Q524 112 497 203ZM482 253Q413 470 310 640Q209 474 139 253H482ZM196 763T186 773T176 801V809Q176
827 186 836T214 846H221Q258 846 258 809V801Q258 783 249 773T221 763H214Q196 763 186 773ZM384 763T374 773T364 801V809Q364 827 374 836T402 846H409Q446 846 446 809V801Q446 783 437 773T409 763H402Q384 763 374 773Z" />
<glyph unicode="&#xc5;" glyph-name="Aring" horiz-adv-x="620" d="M524 112T497 203H124Q94 101 74 0H15Q60 207 124 375T283 700H338Q432 544 496 376T605 0H546Q524 112 497 203ZM482 253Q413 470 310 640Q209 474 139 253H482ZM520 738T488 769T456 847Q456
894 488 925T566 957Q612 957 644 926T676 847Q676 800 644 769T566 738Q520 738 488 769ZM595 779T615 798T635 847Q635 878 616 897T566 916Q536 916 517 897T497 847Q497 818 517 799T566 779Q595 779 615 798Z" />
<glyph unicode="&#xc6;" glyph-name="AE" horiz-adv-x="930" d="M520 650V393H832V343H520V49H870Q870 21 861 11T828 0H470V206H140Q94 104 74 0H15Q53 186 164 372T440 700H875V650H520ZM470 256V650H461Q376 578 298 475T163 256H470Z" />
<glyph unicode="&#xc7;" glyph-name="Ccedilla" horiz-adv-x="596" d="M526 103T533 96T540 78Q540 57 517 38T455 6T373 -9L334 -58Q339 -57 348 -57Q388 -57 414 -77T440 -136Q440 -180 405 -204T319 -229Q274 -229 249 -219T223 -189Q223 -184 226 -176Q270
-189 314 -189Q388 -189 388 -137Q388 -118 374 -107T333 -95Q316 -95 293 -101L275 -75L324 -9Q193 0 123 93T52 350Q52 523 130 616T352 710Q410 710 460 691T546 633Q542 619 533 611T513 602Q499 602 489 611Q457 636 424 647T350 658Q235 658 173 578T111
350Q111 204 173 124T350 43Q404 43 443 57T514 104Q526 103 533 96Z" />
<glyph unicode="&#xc8;" glyph-name="Egrave" horiz-adv-x="560" d="M505 50Q505 21 497 11T465 0H86V700H504V650H143V388H456V338H143V50H505ZM439 893H503L605 742H549L439 893Z" />
<glyph unicode="&#xc9;" glyph-name="Eacute" horiz-adv-x="560" d="M505 50Q505 21 497 11T465 0H86V700H504V650H143V388H456V338H143V50H505ZM345 893H410L293 742H238L345 893Z" />
<glyph unicode="&#xca;" glyph-name="Ecircumflex" horiz-adv-x="560" d="M505 50Q505 21 497 11T465 0H86V700H504V650H143V388H456V338H143V50H505ZM518 875H571L687 742H633L545 835L455 742H401L518 875Z" />
<glyph unicode="&#xcb;" glyph-name="Edieresis" horiz-adv-x="560" d="M505 50Q505 21 497 11T465 0H86V700H504V650H143V388H456V338H143V50H505ZM174 763T164 773T154 801V809Q154 827 164 836T192 846H199Q236 846 236 809V801Q236 783 227 773T199 763H192Q174
763 164 773ZM362 763T352 773T342 801V809Q342 827 352 836T380 846H387Q424 846 424 809V801Q424 783 415 773T387 763H380Q362 763 352 773Z" />
<glyph unicode="&#xcc;" glyph-name="Igrave" horiz-adv-x="350" d="M147 700H204V0H147V700ZM326 893H390L492 742H436L326 893Z" />
<glyph unicode="&#xcd;" glyph-name="Iacute" horiz-adv-x="350" d="M147 700H204V0H147V700ZM232 893H297L180 742H125L232 893Z" />
<glyph unicode="&#xce;" glyph-name="Icircumflex" horiz-adv-x="350" d="M147 700H204V0H147V700ZM405 875H458L574 742H520L432 835L342 742H288L405 875Z" />
<glyph unicode="&#xcf;" glyph-name="Idieresis" horiz-adv-x="350" d="M147 700H204V0H147V700ZM61 763T51 773T41 801V809Q41 827 51 836T79 846H86Q123 846 123 809V801Q123 783 114 773T86 763H79Q61 763 51 773ZM249 763T239 773T229 801V809Q229 827 239
836T267 846H274Q311 846 311 809V801Q311 783 302 773T274 763H267Q249 763 239 773Z" />
<glyph unicode="&#xd0;" glyph-name="Eth" horiz-adv-x="672" d="M448 700T531 610T615 350Q615 242 577 163T466 42T293 0H86V333H1V379H86V700H293Q448 700 531 610ZM420 50T488 128T556 349Q556 498 490 574T293 650H143V379H346V333H143V50H293Q420 50 488 128Z" />
<glyph unicode="&#xd1;" glyph-name="Ntilde" horiz-adv-x="690" d="M600 106T602 64Q604 36 604 27Q604 0 578 0H543V64Q543 92 536 113T509 159L143 622V0H86V700H133Q143 700 149 697T163 684L543 203V700H600V137Q600 106 602 64ZM467 748T459 753T451 772Q451
807 476 827T538 848Q560 848 576 840T612 818Q631 806 642 800T668 794Q690 794 701 808T716 851Q733 851 742 843T751 821Q751 792 729 771T671 750Q647 750 631 757T591 780Q574 792 562 798T534 804Q511 804 499 791T482 748Q467 748 459 753Z" />
<glyph unicode="&#xd2;" glyph-name="Ograve" horiz-adv-x="680" d="M198 -10T123 84T48 354Q48 527 123 618T340 710Q482 710 557 619T632 354Q632 178 557 84T340 -10Q198 -10 123 84ZM456 42T514 120T573 354Q573 658 340 658Q107 658 107 354Q107 199 166
121T340 42Q456 42 514 120ZM491 893H555L657 742H601L491 893Z" />
<glyph unicode="&#xd3;" glyph-name="Oacute" horiz-adv-x="680" d="M198 -10T123 84T48 354Q48 527 123 618T340 710Q482 710 557 619T632 354Q632 178 557 84T340 -10Q198 -10 123 84ZM456 42T514 120T573 354Q573 658 340 658Q107 658 107 354Q107 199 166
121T340 42Q456 42 514 120ZM397 893H462L345 742H290L397 893Z" />
<glyph unicode="&#xd4;" glyph-name="Ocircumflex" horiz-adv-x="680" d="M198 -10T123 84T48 354Q48 527 123 618T340 710Q482 710 557 619T632 354Q632 178 557 84T340 -10Q198 -10 123 84ZM456 42T514 120T573 354Q573 658 340 658Q107 658 107 354Q107 199
166 121T340 42Q456 42 514 120ZM570 875H623L739 742H685L597 835L507 742H453L570 875Z" />
<glyph unicode="&#xd5;" glyph-name="Otilde" horiz-adv-x="680" d="M198 -10T123 84T48 354Q48 527 123 618T340 710Q482 710 557 619T632 354Q632 178 557 84T340 -10Q198 -10 123 84ZM456 42T514 120T573 354Q573 658 340 658Q107 658 107 354Q107 199 166
121T340 42Q456 42 514 120ZM463 748T455 753T447 772Q447 807 472 827T534 848Q556 848 572 840T608 818Q627 806 638 800T664 794Q686 794 697 808T712 851Q729 851 738 843T747 821Q747 792 725 771T667 750Q643 750 627 757T587 780Q570 792 558 798T530 804Q507
804 495 791T478 748Q463 748 455 753Z" />
<glyph unicode="&#xd6;" glyph-name="Odieresis" horiz-adv-x="680" d="M198 -10T123 84T48 354Q48 527 123 618T340 710Q482 710 557 619T632 354Q632 178 557 84T340 -10Q198 -10 123 84ZM456 42T514 120T573 354Q573 658 340 658Q107 658 107 354Q107 199 166
121T340 42Q456 42 514 120ZM226 763T216 773T206 801V809Q206 827 216 836T244 846H251Q288 846 288 809V801Q288 783 279 773T251 763H244Q226 763 216 773ZM414 763T404 773T394 801V809Q394 827 404 836T432 846H439Q476 846 476 809V801Q476 783 467 773T439
763H432Q414 763 404 773Z" />
<glyph unicode="&#xd7;" glyph-name="multiply" horiz-adv-x="600" d="M108 163L269 324L108 485L139 517L300 356L461 517L493 485L332 324L493 163L461 132L300 293L139 132L108 163Z" />
<glyph unicode="&#xd8;" glyph-name="Oslash" horiz-adv-x="680" d="M632 532T632 354Q632 178 557 84T340 -10Q229 -10 160 47L128 0H68L124 82Q48 176 48 354Q48 527 123 618T340 710Q446 710 516 658L546 701H606L553 623Q632 532 632 354ZM107 210T158 132L486
613Q431 658 340 658Q107 658 107 354Q107 210 158 132ZM456 42T514 120T573 354Q573 499 520 575L191 93Q248 42 340 42Q456 42 514 120Z" />
<glyph unicode="&#xd9;" glyph-name="Ugrave" horiz-adv-x="708" d="M219 -10T153 54T86 251V700H143V246Q143 141 195 91T356 40Q466 40 517 90T568 246V700H625V251Q625 117 560 54T356 -10Q219 -10 153 54ZM505 893H569L671 742H615L505 893Z" />
<glyph unicode="&#xda;" glyph-name="Uacute" horiz-adv-x="708" d="M219 -10T153 54T86 251V700H143V246Q143 141 195 91T356 40Q466 40 517 90T568 246V700H625V251Q625 117 560 54T356 -10Q219 -10 153 54ZM411 893H476L359 742H304L411 893Z" />
<glyph unicode="&#xdb;" glyph-name="Ucircumflex" horiz-adv-x="708" d="M219 -10T153 54T86 251V700H143V246Q143 141 195 91T356 40Q466 40 517 90T568 246V700H625V251Q625 117 560 54T356 -10Q219 -10 153 54ZM584 875H637L753 742H699L611 835L521 742H467L584
875Z" />
<glyph unicode="&#xdc;" glyph-name="Udieresis" horiz-adv-x="708" d="M219 -10T153 54T86 251V700H143V246Q143 141 195 91T356 40Q466 40 517 90T568 246V700H625V251Q625 117 560 54T356 -10Q219 -10 153 54ZM240 763T230 773T220 801V809Q220 827 230 836T258
846H265Q302 846 302 809V801Q302 783 293 773T265 763H258Q240 763 230 773ZM428 763T418 773T408 801V809Q408 827 418 836T446 846H453Q490 846 490 809V801Q490 783 481 773T453 763H446Q428 763 418 773Z" />
<glyph unicode="&#xdd;" glyph-name="Yacute" horiz-adv-x="590" d="M570 700L324 294V0H267V294L20 700H83L296 342L508 700H570ZM352 893H417L300 742H245L352 893Z" />
<glyph unicode="&#xde;" glyph-name="Thorn" horiz-adv-x="641" d="M462 593T525 529T588 358Q588 251 525 187T327 123H166V0H109V700H166V593H327Q462 593 525 529ZM432 172T480 221T529 358Q529 445 481 494T327 544H166V172H327Q432 172 480 221Z" />
<glyph unicode="&#xdf;" glyph-name="germandbls" horiz-adv-x="617" d="M482 351T517 306T553 199Q553 96 495 41T342 -14Q284 -14 239 4T193 49Q193 59 198 66T211 76Q242 52 273 42T346 32Q419 32 460 73T502 191Q502 259 458 299T340 339Q330 339 312 337L287
336Q273 336 264 348T255 375Q255 384 262 384H331Q396 384 435 424T474 533Q474 602 430 644T311 686Q232 686 185 643T138 517V0H84V517Q84 585 114 633T197 706T313 731Q376 731 425 705T500 633T527 530Q527 467 499 426T423 365Q482 351 517 306Z" />
<glyph unicode="&#xe0;" glyph-name="agrave" horiz-adv-x="558" d="M476 86T483 61T510 17Q505 8 494 2T473 -5Q452 -5 439 21T422 92Q388 45 332 18T213 -10Q141 -10 96 30T50 135Q50 228 144 280T421 341V373Q421 514 278 514Q228 514 186 495T102 434Q97 429
88 429Q79 429 69 436T51 456Q94 506 154 533T281 560Q373 560 424 511T476 373V132Q476 86 483 61ZM276 36T329 68T421 160V295Q262 288 184 249T106 136Q106 89 136 63T218 36Q276 36 329 68ZM428 783H492L594 632H538L428 783Z" />
<glyph unicode="&#xe1;" glyph-name="aacute" horiz-adv-x="558" d="M476 86T483 61T510 17Q505 8 494 2T473 -5Q452 -5 439 21T422 92Q388 45 332 18T213 -10Q141 -10 96 30T50 135Q50 228 144 280T421 341V373Q421 514 278 514Q228 514 186 495T102 434Q97 429
88 429Q79 429 69 436T51 456Q94 506 154 533T281 560Q373 560 424 511T476 373V132Q476 86 483 61ZM276 36T329 68T421 160V295Q262 288 184 249T106 136Q106 89 136 63T218 36Q276 36 329 68ZM334 783H399L282 632H227L334 783Z" />
<glyph unicode="&#xe2;" glyph-name="acircumflex" horiz-adv-x="558" d="M476 86T483 61T510 17Q505 8 494 2T473 -5Q452 -5 439 21T422 92Q388 45 332 18T213 -10Q141 -10 96 30T50 135Q50 228 144 280T421 341V373Q421 514 278 514Q228 514 186 495T102 434Q97
429 88 429Q79 429 69 436T51 456Q94 506 154 533T281 560Q373 560 424 511T476 373V132Q476 86 483 61ZM276 36T329 68T421 160V295Q262 288 184 249T106 136Q106 89 136 63T218 36Q276 36 329 68ZM507 765H560L676 632H622L534 725L444 632H390L507 765Z" />
<glyph unicode="&#xe3;" glyph-name="atilde" horiz-adv-x="558" d="M476 86T483 61T510 17Q505 8 494 2T473 -5Q452 -5 439 21T422 92Q388 45 332 18T213 -10Q141 -10 96 30T50 135Q50 228 144 280T421 341V373Q421 514 278 514Q228 514 186 495T102 434Q97 429
88 429Q79 429 69 436T51 456Q94 506 154 533T281 560Q373 560 424 511T476 373V132Q476 86 483 61ZM276 36T329 68T421 160V295Q262 288 184 249T106 136Q106 89 136 63T218 36Q276 36 329 68ZM400 638T392 643T384 662Q384 697 409 717T471 738Q493 738 509 730T545
708Q564 696 575 690T601 684Q623 684 634 698T649 741Q666 741 675 733T684 711Q684 682 662 661T604 640Q580 640 564 647T524 670Q507 682 495 688T467 694Q444 694 432 681T415 638Q400 638 392 643Z" />
<glyph unicode="&#xe4;" glyph-name="adieresis" horiz-adv-x="558" d="M476 86T483 61T510 17Q505 8 494 2T473 -5Q452 -5 439 21T422 92Q388 45 332 18T213 -10Q141 -10 96 30T50 135Q50 228 144 280T421 341V373Q421 514 278 514Q228 514 186 495T102 434Q97
429 88 429Q79 429 69 436T51 456Q94 506 154 533T281 560Q373 560 424 511T476 373V132Q476 86 483 61ZM276 36T329 68T421 160V295Q262 288 184 249T106 136Q106 89 136 63T218 36Q276 36 329 68ZM163 653T153 663T143 691V699Q143 717 153 726T181 736H188Q225
736 225 699V691Q225 673 216 663T188 653H181Q163 653 153 663ZM351 653T341 663T331 691V699Q331 717 341 726T369 736H376Q413 736 413 699V691Q413 673 404 663T376 653H369Q351 653 341 663Z" />
<glyph unicode="&#xe5;" glyph-name="aring" horiz-adv-x="558" d="M476 86T483 61T510 17Q505 8 494 2T473 -5Q452 -5 439 21T422 92Q388 45 332 18T213 -10Q141 -10 96 30T50 135Q50 228 144 280T421 341V373Q421 514 278 514Q228 514 186 495T102 434Q97 429
88 429Q79 429 69 436T51 456Q94 506 154 533T281 560Q373 560 424 511T476 373V132Q476 86 483 61ZM276 36T329 68T421 160V295Q262 288 184 249T106 136Q106 89 136 63T218 36Q276 36 329 68ZM487 628T455 659T423 737Q423 784 455 815T533 847Q579 847 611 816T643
737Q643 690 611 659T533 628Q487 628 455 659ZM562 669T582 688T602 737Q602 768 583 787T533 806Q503 806 484 787T464 737Q464 708 484 689T533 669Q562 669 582 688Z" />
<glyph unicode="&#xe6;" glyph-name="ae" horiz-adv-x="932" d="M892 296T889 278H478Q478 159 527 98T662 36Q728 36 766 59T826 131Q832 144 844 144Q858 144 881 128Q858 62 804 25T662 -12Q591 -12 537 20T454 115Q414 54 353 21T218 -12Q146 -12 98 26T50
132Q50 325 423 327V373Q423 514 273 514Q219 514 181 494T102 432Q95 424 87 424Q72 424 51 451Q93 501 149 530T276 560Q343 560 393 532T463 449Q495 504 548 532T666 560Q774 560 832 500T892 318Q892 296 889 278ZM837 322Q835 416 791 466T663 516Q588 516
539 467T480 322H837ZM292 34T350 74T433 176Q423 226 423 276V281Q251 275 178 240T105 133Q105 87 136 61T223 34Q292 34 350 74Z" />
<glyph unicode="&#xe7;" glyph-name="ccedilla" horiz-adv-x="549" d="M485 153T493 144T501 121Q501 90 474 61T403 13T308 -9L269 -58Q274 -57 283 -57Q323 -57 349 -77T375 -136Q375 -180 340 -204T254 -229Q209 -229 184 -219T158 -189Q158 -184 161 -176Q205
-189 249 -189Q323 -189 323 -137Q323 -118 309 -107T268 -95Q251 -95 228 -101L210 -75L260 -8Q157 3 99 78T40 278Q40 363 71 427T159 525T292 560Q383 560 441 513T508 387Q500 383 489 380T470 377Q461 377 457 382T448 405Q436 456 395 485T292 514Q234 514
190 485T121 402T96 278Q96 206 120 152T188 67T291 37Q357 37 403 66T474 153Q485 153 493 144Z" />
<glyph unicode="&#xe8;" glyph-name="egrave" horiz-adv-x="560" d="M520 286T518 268H106Q109 161 158 100T290 38Q346 38 384 59T452 127Q463 144 476 144Q487 144 509 130Q484 63 427 27T290 -10Q217 -10 163 25T80 124T50 276Q50 410 114 485T294 560Q401
560 460 493T520 307Q520 286 518 268ZM464 314Q464 411 420 461T291 512Q211 512 163 460T107 314H464ZM437 783H501L603 632H547L437 783Z" />
<glyph unicode="&#xe9;" glyph-name="eacute" horiz-adv-x="560" d="M520 286T518 268H106Q109 161 158 100T290 38Q346 38 384 59T452 127Q463 144 476 144Q487 144 509 130Q484 63 427 27T290 -10Q217 -10 163 25T80 124T50 276Q50 410 114 485T294 560Q401
560 460 493T520 307Q520 286 518 268ZM464 314Q464 411 420 461T291 512Q211 512 163 460T107 314H464ZM343 783H408L291 632H236L343 783Z" />
<glyph unicode="&#xea;" glyph-name="ecircumflex" horiz-adv-x="560" d="M520 286T518 268H106Q109 161 158 100T290 38Q346 38 384 59T452 127Q463 144 476 144Q487 144 509 130Q484 63 427 27T290 -10Q217 -10 163 25T80 124T50 276Q50 410 114 485T294 560Q401
560 460 493T520 307Q520 286 518 268ZM464 314Q464 411 420 461T291 512Q211 512 163 460T107 314H464ZM516 765H569L685 632H631L543 725L453 632H399L516 765Z" />
<glyph unicode="&#xeb;" glyph-name="edieresis" horiz-adv-x="560" d="M520 286T518 268H106Q109 161 158 100T290 38Q346 38 384 59T452 127Q463 144 476 144Q487 144 509 130Q484 63 427 27T290 -10Q217 -10 163 25T80 124T50 276Q50 410 114 485T294 560Q401
560 460 493T520 307Q520 286 518 268ZM464 314Q464 411 420 461T291 512Q211 512 163 460T107 314H464ZM172 653T162 663T152 691V699Q152 717 162 726T190 736H197Q234 736 234 699V691Q234 673 225 663T197 653H190Q172 653 162 663ZM360 653T350 663T340 691V699Q340
717 350 726T378 736H385Q422 736 422 699V691Q422 673 413 663T385 653H378Q360 653 350 663Z" />
<glyph unicode="&#xec;" glyph-name="igrave" horiz-adv-x="289" d="M117 550H172V0H117V550ZM296 783H360L462 632H406L296 783Z" />
<glyph unicode="&#xed;" glyph-name="iacute" horiz-adv-x="289" d="M117 550H172V0H117V550ZM202 783H267L150 632H95L202 783Z" />
<glyph unicode="&#xee;" glyph-name="icircumflex" horiz-adv-x="289" d="M117 550H172V0H117V550ZM375 765H428L544 632H490L402 725L312 632H258L375 765Z" />
<glyph unicode="&#xef;" glyph-name="idieresis" horiz-adv-x="289" d="M117 550H172V0H117V550ZM31 653T21 663T11 691V699Q11 717 21 726T49 736H56Q93 736 93 699V691Q93 673 84 663T56 653H49Q31 653 21 663ZM219 653T209 663T199 691V699Q199 717 209 726T237
736H244Q281 736 281 699V691Q281 673 272 663T244 653H237Q219 653 209 663Z" />
<glyph unicode="&#xf0;" glyph-name="eth" horiz-adv-x="547" d="M427 605T467 503T507 275Q507 151 452 70T274 -12Q150 -12 95 69T40 275Q40 349 62 413T137 518T274 560Q345 560 395 526Q358 597 292 660L193 600L164 641L253 695Q213 729 167 755L203 794Q259
760 301 725L416 795L444 753L340 690Q427 605 467 503ZM452 34T452 275Q452 384 409 449T274 514Q181 514 138 449T95 275Q95 34 274 34Q452 34 452 275Z" />
<glyph unicode="&#xf1;" glyph-name="ntilde" horiz-adv-x="610" d="M520 67T523 46T535 7Q527 2 517 -1T496 -5Q479 -5 472 19T465 102V373Q465 447 436 481T342 516Q293 516 242 492T145 424V0H90V388Q90 464 88 496T78 539Q101 554 119 554Q133 554 139 539T145
491V480Q240 560 349 560Q435 560 477 514T520 372V118Q520 67 523 46ZM428 638T420 643T412 662Q412 697 437 717T499 738Q521 738 537 730T573 708Q592 696 603 690T629 684Q651 684 662 698T677 741Q694 741 703 733T712 711Q712 682 690 661T632 640Q608 640
592 647T552 670Q535 682 523 688T495 694Q472 694 460 681T443 638Q428 638 420 643Z" />
<glyph unicode="&#xf2;" glyph-name="ograve" horiz-adv-x="548" d="M158 -10T99 62T40 276Q40 560 274 560Q508 560 508 276Q508 134 449 62T274 -10Q158 -10 99 62ZM365 37T408 95T452 276Q452 398 409 456T274 514Q183 514 140 456T96 276Q96 154 139 96T274
37Q365 37 408 95ZM425 783H489L591 632H535L425 783Z" />
<glyph unicode="&#xf3;" glyph-name="oacute" horiz-adv-x="548" d="M158 -10T99 62T40 276Q40 560 274 560Q508 560 508 276Q508 134 449 62T274 -10Q158 -10 99 62ZM365 37T408 95T452 276Q452 398 409 456T274 514Q183 514 140 456T96 276Q96 154 139 96T274
37Q365 37 408 95ZM331 783H396L279 632H224L331 783Z" />
<glyph unicode="&#xf4;" glyph-name="ocircumflex" horiz-adv-x="548" d="M158 -10T99 62T40 276Q40 560 274 560Q508 560 508 276Q508 134 449 62T274 -10Q158 -10 99 62ZM365 37T408 95T452 276Q452 398 409 456T274 514Q183 514 140 456T96 276Q96 154 139
96T274 37Q365 37 408 95ZM504 765H557L673 632H619L531 725L441 632H387L504 765Z" />
<glyph unicode="&#xf5;" glyph-name="otilde" horiz-adv-x="548" d="M158 -10T99 62T40 276Q40 560 274 560Q508 560 508 276Q508 134 449 62T274 -10Q158 -10 99 62ZM365 37T408 95T452 276Q452 398 409 456T274 514Q183 514 140 456T96 276Q96 154 139 96T274
37Q365 37 408 95ZM397 638T389 643T381 662Q381 697 406 717T468 738Q490 738 506 730T542 708Q561 696 572 690T598 684Q620 684 631 698T646 741Q663 741 672 733T681 711Q681 682 659 661T601 640Q577 640 561 647T521 670Q504 682 492 688T464 694Q441 694
429 681T412 638Q397 638 389 643Z" />
<glyph unicode="&#xf6;" glyph-name="odieresis" horiz-adv-x="548" d="M158 -10T99 62T40 276Q40 560 274 560Q508 560 508 276Q508 134 449 62T274 -10Q158 -10 99 62ZM365 37T408 95T452 276Q452 398 409 456T274 514Q183 514 140 456T96 276Q96 154 139 96T274
37Q365 37 408 95ZM160 653T150 663T140 691V699Q140 717 150 726T178 736H185Q222 736 222 699V691Q222 673 213 663T185 653H178Q160 653 150 663ZM348 653T338 663T328 691V699Q328 717 338 726T366 736H373Q410 736 410 699V691Q410 673 401 663T373 653H366Q348
653 338 663Z" />
<glyph unicode="&#xf7;" glyph-name="divide" horiz-adv-x="600" d="M271 476T257 489T243 522Q243 540 257 554T289 568Q308 568 322 554T337 522Q337 503 323 490T289 476Q271 476 257 489ZM70 346H530V302H70V346ZM271 85T257 99T243 130Q243 149 257 163T289
178Q309 178 323 164T337 130Q337 113 323 99T289 85Q271 85 257 99Z" />
<glyph unicode="&#xf8;" glyph-name="oslash" horiz-adv-x="548" d="M456 481Q508 410 508 276Q508 134 449 62T274 -10Q179 -10 122 38L94 0H40L93 70Q40 141 40 276Q40 560 274 560Q368 560 426 513L454 550H508L456 481ZM96 173T127 115L395 472Q352 514 274
514Q183 514 140 456T96 276Q96 173 127 115ZM452 378T422 435L154 79Q198 37 274 37Q365 37 408 95T452 276Q452 378 422 435Z" />
<glyph unicode="&#xf9;" glyph-name="ugrave" horiz-adv-x="609" d="M517 55T532 7Q516 -5 497 -5Q479 -5 472 14T462 82Q432 40 379 15T267 -10Q179 -10 135 38T90 180V550H145V182Q145 110 178 73T276 35Q330 35 379 64T462 145V550H517V113Q517 55 532 7ZM456
783H520L622 632H566L456 783Z" />
<glyph unicode="&#xfa;" glyph-name="uacute" horiz-adv-x="609" d="M517 55T532 7Q516 -5 497 -5Q479 -5 472 14T462 82Q432 40 379 15T267 -10Q179 -10 135 38T90 180V550H145V182Q145 110 178 73T276 35Q330 35 379 64T462 145V550H517V113Q517 55 532 7ZM362
783H427L310 632H255L362 783Z" />
<glyph unicode="&#xfb;" glyph-name="ucircumflex" horiz-adv-x="609" d="M517 55T532 7Q516 -5 497 -5Q479 -5 472 14T462 82Q432 40 379 15T267 -10Q179 -10 135 38T90 180V550H145V182Q145 110 178 73T276 35Q330 35 379 64T462 145V550H517V113Q517 55 532
7ZM535 765H588L704 632H650L562 725L472 632H418L535 765Z" />
<glyph unicode="&#xfc;" glyph-name="udieresis" horiz-adv-x="609" d="M517 55T532 7Q516 -5 497 -5Q479 -5 472 14T462 82Q432 40 379 15T267 -10Q179 -10 135 38T90 180V550H145V182Q145 110 178 73T276 35Q330 35 379 64T462 145V550H517V113Q517 55 532 7ZM191
653T181 663T171 691V699Q171 717 181 726T209 736H216Q253 736 253 699V691Q253 673 244 663T216 653H209Q191 653 181 663ZM379 653T369 663T359 691V699Q359 717 369 726T397 736H404Q441 736 441 699V691Q441 673 432 663T404 653H397Q379 653 369 663Z" />
<glyph unicode="&#xfd;" glyph-name="yacute" horiz-adv-x="485" d="M474 550L256 -42Q227 -121 185 -157T80 -193Q44 -193 23 -183T1 -156Q1 -139 17 -130Q27 -137 46 -141T86 -146Q129 -146 162 -108T220 9L14 550H72L248 90L416 550H474ZM300 783H365L248 632H193L300
783Z" />
<glyph unicode="&#xfe;" glyph-name="thorn" horiz-adv-x="609" d="M430 560T494 493T558 280Q558 188 527 123T439 23T308 -12Q218 -12 146 24V-220H92V791H146V490Q180 524 226 542T321 560Q430 560 494 493ZM394 34T448 97T502 280Q502 399 454 456T321 514Q269
514 224 491T146 431V74Q180 55 222 45T308 34Q394 34 448 97Z" />
<glyph unicode="&#xff;" glyph-name="ydieresis" horiz-adv-x="485" d="M474 550L256 -42Q227 -121 185 -157T80 -193Q44 -193 23 -183T1 -156Q1 -139 17 -130Q27 -137 46 -141T86 -146Q129 -146 162 -108T220 9L14 550H72L248 90L416 550H474ZM129 653T119 663T109
691V699Q109 717 119 726T147 736H154Q191 736 191 699V691Q191 673 182 663T154 653H147Q129 653 119 663ZM317 653T307 663T297 691V699Q297 717 307 726T335 736H342Q379 736 379 699V691Q379 673 370 663T342 653H335Q317 653 307 663Z" />
<glyph unicode="&#x2013;" glyph-name="endash" horiz-adv-x="623" d="M50 324H573V277H50V324Z" />
<glyph unicode="&#x2014;" glyph-name="emdash" horiz-adv-x="1100" d="M50 324H1050V277H50V324Z" />
<glyph unicode="&#x2018;" glyph-name="quoteleft" horiz-adv-x="243" d="M139 625T148 615T158 588V579Q158 562 149 552T123 542H113Q96 542 86 552T76 581V591Q76 622 86 654T113 713Q127 735 136 743T155 751Q168 751 178 741Q152 711 138 684T119 625H123Q139
625 148 615Z" />
<glyph unicode="&#x2019;" glyph-name="quoteright" horiz-adv-x="243" d="M155 743T165 733T175 703V694Q175 663 165 631T138 571Q124 549 115 541T96 533Q83 533 73 543Q99 573 113 600T132 659H127Q111 659 102 669T93 696V706Q93 722 102 732T128 743H138Q155
743 165 733Z" />
<glyph unicode="&#x201a;" glyph-name="quotesinglbase" horiz-adv-x="250" d="M155 84T165 74T175 44V35Q175 4 165 -28T138 -88Q124 -110 115 -118T96 -126Q83 -126 73 -116Q99 -86 113 -59T132 0H127Q111 0 102 10T93 37V47Q93 63 102 73T128 84H138Q155 84 165 74Z" />
<glyph unicode="&#x201c;" glyph-name="quotedblleft" horiz-adv-x="400" d="M168 751T178 741Q152 711 138 684T119 625H123Q139 625 148 615T158 588V579Q158 562 149 552T123 542H113Q96 542 86 552T76 581V591Q76 622 86 654T113 713Q127 735 136 743T155
751Q168 751 178 741ZM289 625T298 615T308 588V579Q308 562 299 552T273 542H263Q246 542 236 552T226 581V591Q226 622 236 654T263 713Q277 735 286 743T305 751Q318 751 328 741Q302 711 288 684T269 625H273Q289 625 298 615Z" />
<glyph unicode="&#x201d;" glyph-name="quotedblright" horiz-adv-x="400" d="M305 743T315 733T325 703V694Q325 663 315 631T288 571Q274 549 265 541T246 533Q233 533 223 543Q249 573 263 600T282 659H277Q261 659 252 669T243 696V706Q243 722 252 732T278
743H288Q305 743 315 733ZM155 743T165 733T175 703V694Q175 663 165 631T138 571Q124 549 115 541T96 533Q83 533 73 543Q99 573 113 600T132 659H127Q111 659 102 669T93 696V706Q93 722 102 732T128 743H138Q155 743 165 733Z" />
<glyph unicode="&#x201e;" glyph-name="quotedblbase" horiz-adv-x="400" d="M305 84T315 74T325 44V35Q325 4 315 -28T288 -88Q274 -110 265 -118T246 -126Q233 -126 223 -116Q249 -86 263 -59T282 0H277Q261 0 252 10T243 37V47Q243 63 252 73T278 84H288Q305
84 315 74ZM155 84T165 74T175 44V35Q175 4 165 -28T138 -88Q124 -110 115 -118T96 -126Q83 -126 73 -116Q99 -86 113 -59T132 0H127Q111 0 102 10T93 37V47Q93 63 102 73T128 84H138Q155 84 165 74Z" />
<glyph unicode="&#x2022;" glyph-name="bullet" horiz-adv-x="560" d="M228 197T187 220T123 284T100 377Q100 429 123 470T187 534T280 557Q332 557 373 534T437 470T460 377Q460 325 437 284T373 220T280 197Q228 197 187 220Z" />
<glyph unicode="&#x2039;" glyph-name="guilsinglleft" horiz-adv-x="340" d="M70 288L198 452H245L126 288L245 117H198L70 288Z" />
<glyph unicode="&#x203a;" glyph-name="guilsinglright" horiz-adv-x="340" d="M95 117L214 288L95 452H142L270 288L142 117H95Z" />
</font>
</defs>
</svg>
